<?xml version="1.0" standalone="no"?>
<!DOCTYPE svg PUBLIC "-//W3C//DTD SVG 1.1//EN" "http://www.w3.org/Graphics/SVG/1.1/DTD/svg11.dtd" >
<svg>
<metadata>
Created by FontForge 20120731 at Tue Feb 25 14:22:11 2014
 By World Wide Web Server
Copyright (c) 1991 Adobe Systems Incorporated.  All Rights Reserved. Isadora is a trademark of International Typeface Corporation. Cyrillic Code Page by PRADEX Group, 2003. Digital Signature &#38; Open Type by Alex Gotowsky.
</metadata>
<defs>
<font id="PGIsadoraCyrPro-Regular" horiz-adv-x="537" >
  <font-face 
    font-family="PG Isadora Cyr Pro"
    font-weight="400"
    font-stretch="normal"
    units-per-em="1000"
    panose-1="2 0 5 0 6 0 0 2 0 3"
    ascent="800"
    descent="-200"
    x-height="435"
    cap-height="635"
    bbox="-253 -250 1212 880"
    underline-thickness="50"
    underline-position="-75"
    unicode-range="U+0020-FB02"
  />
<missing-glyph horiz-adv-x="278" 
 />
    <glyph glyph-name=".notdef" horiz-adv-x="278" 
 />
    <glyph glyph-name="space" unicode=" " horiz-adv-x="278" 
 />
    <glyph glyph-name="space" unicode="&#xa0;" horiz-adv-x="278" 
 />
    <glyph glyph-name="exclam" unicode="!" horiz-adv-x="352" 
d="M99 -15q-18 0 -31.5 13.5t-13.5 31.5q0 19 13.5 32t31.5 13t31.5 -13t13.5 -32q0 -18 -13.5 -31.5t-31.5 -13.5zM124 162q10 27 21 62t22 73.5t22 77.5t22 75q17 59 24 105t7 63l70 22q-1 -22 -10.5 -57.5t-23 -78t-30.5 -89t-33 -90t-30.5 -81t-22.5 -61.5z" />
    <glyph glyph-name="quotedbl" unicode="&#x22;" horiz-adv-x="426" 
d="M193 625h70l-22 -186h-25zM308 625h70l-23 -186h-25z" />
    <glyph glyph-name="numbersign" unicode="#" 
d="M119 173h-102l29 40h86l31 97h-103l29 40h87l54 175l45 13l-59 -188h121l55 175l45 13l-60 -188h102l-28 -40h-87l-30 -97h102l-29 -40h-86l-54 -173l-44 -10l58 183h-122l-54 -173l-44 -10zM173 213h121l30 97h-121z" />
    <glyph glyph-name="dollar" unicode="$" 
d="M168 64q-39 12 -59.5 31t-35.5 45l29 54q9 -29 23.5 -58t49.5 -48l71 224q-5 11 -15 23.5t-20 28t-17 35t-7 45.5q0 24 10 46t27.5 39.5t41.5 28t52 10.5h9l15 48l33 9l-18 -59q17 -4 30 -8t23.5 -9.5t20.5 -13.5t21 -20l-31 -53q-3 10 -5 20.5t-9 21.5t-20 21.5
t-37 19.5l-59 -187q7 -11 21.5 -28.5t28 -39t24 -47t10.5 -50.5q0 -32 -12.5 -57.5t-33 -43.5t-46 -27.5t-52.5 -9.5q-9 0 -17.5 0.5t-17.5 1.5l-21 -66l-32 -6zM203 78q18 -8 36 -8q38 0 62 26t24 63q0 18 -6 35.5t-15 34t-19 30.5t-17 25zM309 548q-15 0 -29 -6.5
t-24.5 -18t-17 -25.5t-6.5 -29q0 -25 14 -47.5t23 -36.5l52 163h-12z" />
    <glyph glyph-name="percent" unicode="%" horiz-adv-x="759" 
d="M155 -15q38 79 92 159t116 157.5t127 149.5t125 134l-2 2q-23 -14 -51.5 -32.5t-60.5 -34.5t-65.5 -27t-64.5 -11q-6 0 -11.5 0.5t-11.5 1.5q0 -32 -12 -72.5t-35 -76.5t-56.5 -61t-76.5 -25q-26 0 -45.5 10.5t-33 28.5t-20.5 42t-7 50q0 38 14.5 79t39 74.5t57.5 55
t70 21.5q31 0 50.5 -12.5t31 -29t16 -32t6.5 -22.5q9 -3 18 -5t18 -2q37 0 74.5 11.5t71.5 29t64 38t53 39.5l17 -15q-40 -37 -83 -84t-85.5 -99.5t-83 -108.5t-75 -111.5t-61.5 -107.5t-43 -97zM102 367q0 -18 3.5 -36.5t12 -33t22 -24t34.5 -9.5q25 0 48.5 21.5t42 55
t29.5 73.5t11 76q0 18 -3 36.5t-11 33.5t-21 25t-32 10q-24 0 -48.5 -20.5t-44 -53t-31.5 -73t-12 -81.5zM510 0q-41 0 -70.5 31t-29.5 88q0 43 15 85t40 76t58 55t69 21q45 0 75 -32t30 -85q0 -43 -15 -86t-40.5 -77t-59.5 -55t-72 -21zM450 111q0 -39 17 -67.5t54 -28.5
q27 0 51.5 21t43.5 54t30 74t11 81t-16.5 68t-54.5 28q-28 0 -52.5 -21t-43 -54.5t-29.5 -74.5t-11 -80z" />
    <glyph glyph-name="ampersand" unicode="&#x26;" horiz-adv-x="833" 
d="M242 282l-15 -17.5t-17.5 -24.5t-14 -32.5t-5.5 -40.5q0 -32 13 -60.5t35.5 -50t53 -34t66.5 -12.5q26 0 52.5 8.5t48.5 25.5q-60 81 -98.5 161t-62.5 168q-18 -9 -46 -26.5t-55 -44.5t-46.5 -63.5t-19.5 -83.5q0 -40 14 -68t33.5 -47t39.5 -29.5t33 -15.5q-29 1 -62 9.5
t-61.5 27t-47.5 48.5t-19 74q0 36 13.5 66t35 54.5t48 43.5t52.5 33t48 23t35 14q-5 23 -9 47t-4 48q0 64 38 103t101 39q21 0 39.5 -7t32.5 -19t22 -28t8 -33q0 -35 -21 -59t-48.5 -40.5t-55.5 -26.5t-41 -15q7 -25 17.5 -57t21.5 -58q21 23 42 39.5t48 27.5t63.5 16.5
t88.5 5.5q17 0 32.5 -1.5t32.5 -1.5q20 0 32.5 1t22.5 4.5t19 9t21 14.5q-16 -25 -28.5 -39.5t-30 -22t-43 -10t-67.5 -2.5h-13q0 -46 -7.5 -83.5t-20.5 -68t-30.5 -56t-37.5 -46.5q24 -33 55 -68t70 -66.5t86 -57t104 -38.5l-89 -27q-45 12 -85.5 37.5t-76 57t-64.5 64.5
t-50 61q-7 -6 -15.5 -12.5t-21 -12t-29.5 -9t-40 -3.5q-43 0 -78.5 14t-60.5 37.5t-39 54.5t-14 66q0 29 13 55.5t32 49.5zM561 325q-33 0 -57 -3.5t-42.5 -10t-33 -17t-29.5 -24.5q20 -45 48.5 -95t60.5 -92q4 5 16.5 19.5t26 38t23.5 54t10 66.5q0 16 -2.5 32t-7.5 32h-13
zM335 505q0 -34 6 -55t11 -37q14 7 34.5 18t39 27.5t32 39.5t13.5 54q0 22 -14 37.5t-42 15.5q-14 0 -28.5 -7.5t-26 -21t-18.5 -31.5t-7 -40z" />
    <glyph glyph-name="quoteright" unicode="&#x2019;" horiz-adv-x="278" 
d="M128 455q16 3 31.5 11.5t28.5 19.5t21 25t8 28q0 7 -4.5 13.5t-10 13t-10 14t-4.5 17.5q0 17 12 30t34 13q18 0 30 -13t12 -34q0 -33 -17 -60t-40 -47t-47.5 -32t-40.5 -14z" />
    <glyph glyph-name="parenleft" unicode="(" horiz-adv-x="315" 
d="M111 -137q-3 10 -10.5 34t-15 59.5t-13.5 82t-6 101.5q0 122 30.5 217.5t77 167.5t103 122t107.5 83l11 -16q-58 -44 -110 -115t-91.5 -161.5t-62.5 -196.5t-23 -218q0 -53 6.5 -91t14.5 -63z" />
    <glyph glyph-name="parenright" unicode=")" horiz-adv-x="315" 
d="M196 730q3 -10 10.5 -34t15 -59.5t13.5 -82t6 -101.5q0 -122 -30.5 -217.5t-77 -167.5t-103 -122t-107.5 -83l-11 16q58 43 110 114.5t91.5 162t62.5 196t23 218.5q0 53 -6.5 91t-14.5 63z" />
    <glyph glyph-name="asterisk" unicode="*" 
d="M232 288q6 12 15 33.5t18.5 45.5t18.5 47t14 37l-2 2q-23 -15 -46.5 -31t-40.5 -34l-26 17l120 65q-12 14 -21 25t-18 21t-19.5 20t-24.5 22l12 36l75 -111q10 35 19 74t13 70l50 13q-7 -14 -15 -33t-16.5 -40t-16.5 -42.5t-14 -39.5l2 -2q16 11 34 23t41 30l12 12
l31 -14l-27 -13.5t-35.5 -18.5t-35.5 -20t-28 -16q20 -25 39 -46t43 -42l-11 -32l-77 107q-9 -33 -18.5 -74t-12.5 -72z" />
    <glyph glyph-name="plus" unicode="+" 
d="M237 190h-175v40h175v205h50v-205h175v-40h-175v-205h-50v205z" />
    <glyph glyph-name="comma" unicode="," horiz-adv-x="278" 
d="M10 -104q16 3 31.5 11.5t28.5 19.5t21 25t8 28q0 7 -4.5 13.5t-10 13t-10 14t-4.5 17.5q0 17 12 30t34 13q18 0 30 -13t12 -34q0 -33 -17 -60t-40 -47t-47.5 -32t-40.5 -14z" />
    <glyph glyph-name="hyphen" unicode="-" horiz-adv-x="333" 
d="M52 259h100q43 0 71 4t47 8l-38 -57h-97q-43 0 -69.5 -4t-50.5 -8z" />
    <glyph glyph-name="hyphen" unicode="&#xad;" horiz-adv-x="333" 
d="M52 259h100q43 0 71 4t47 8l-38 -57h-97q-43 0 -69.5 -4t-50.5 -8z" />
    <glyph glyph-name="period" unicode="." horiz-adv-x="278" 
d="M93 -15q-25 0 -38 13t-13 33q0 21 13.5 35.5t33.5 14.5q23 0 36.5 -13.5t13.5 -33.5t-13 -34.5t-33 -14.5z" />
    <glyph glyph-name="slash" unicode="/" horiz-adv-x="389" 
d="M-109 -121q14 22 49.5 74.5t81.5 125.5l220 353q42 67 73 119.5t43 73.5l77 15q-16 -21 -47 -64.5t-66 -100.5l-307 -489q-19 -31 -32.5 -54t-21.5 -38z" />
    <glyph glyph-name="zero" unicode="0" 
d="M198 -15q-39 0 -69 18t-50 48t-30.5 69t-10.5 82q0 83 26.5 159.5t69 135t96 93.5t107.5 35q40 0 70 -17.5t50.5 -47.5t31 -70t10.5 -86q0 -75 -25.5 -150t-67.5 -134.5t-96.5 -97t-111.5 -37.5zM98 160q0 -25 3.5 -53t14 -52t29.5 -39.5t51 -15.5q38 0 71 23t60 60.5
t47.5 85t35 96t22 94.5t7.5 81q0 27 -3.5 57t-14 55t-31 41.5t-54.5 16.5q-36 0 -68 -23.5t-58.5 -61t-47 -86t-35 -98.5t-22 -97.5t-7.5 -83.5z" />
    <glyph glyph-name="one" unicode="1" 
d="M166 -15q3 10 13.5 39.5t22.5 64t23.5 67t16.5 49.5l118 374l-2 2l-69 -67q-17 -17 -36 -38t-36.5 -43t-33 -41.5t-24.5 -32.5l-17 64l223 187l78 15q-3 -7 -11 -28t-18.5 -50.5t-22 -63t-21.5 -65.5l-72 -228q-20 -61 -33 -112.5t-18 -77.5z" />
    <glyph glyph-name="two" unicode="2" 
d="M16 50l267 254q21 20 42 41.5t38.5 45t28.5 47.5t11 50q0 47 -34 74.5t-86 27.5q-23 0 -42.5 -4t-35.5 -9t-27 -10t-15 -7l-8 29q6 3 20 9t34.5 12t46.5 10.5t57 4.5q40 0 70.5 -11.5t50 -31.5t29.5 -46t10 -54t-11 -53t-29.5 -48t-43 -44.5t-51.5 -42.5l-193 -156
q-7 -6 -19.5 -17t-26 -23.5t-26 -24t-19.5 -18.5h154q51 0 103.5 3t96.5 11l-34 -73q-8 1 -21 1.5t-27 1.5q-15 1 -30.5 1h-29.5h-156q-9 0 -26 -0.5l-34 -1t-31.5 -1.5t-19.5 -1z" />
    <glyph glyph-name="three" unicode="3" 
d="M188 604q48 21 104 21q80 0 118.5 -33.5t38.5 -83.5q0 -38 -19.5 -65.5t-48 -46.5t-61 -29t-59.5 -14v-2q20 -8 45 -22t46.5 -35t36.5 -49.5t15 -66.5q0 -37 -18 -72t-50 -62t-76.5 -43t-98.5 -16q-31 0 -62.5 6.5t-60.5 17.5l15 28q24 -10 50 -16t52 -6q41 0 75.5 12.5
t60 33.5t39.5 49.5t14 61.5q0 42 -21 72t-52.5 48.5t-67 27t-64.5 8.5l24 42q23 -4 51 -4q43 0 75.5 11t54.5 29.5t33.5 44t11.5 54.5q0 25 -9.5 42t-24.5 27.5t-34.5 15.5t-38.5 5q-23 0 -44.5 -5.5t-42.5 -13.5z" />
    <glyph glyph-name="four" unicode="4" 
d="M287 214h-85q-62 0 -96 -3t-60 -8l-12 16q39 37 78 83t72.5 95.5t58.5 99t36 94.5l68 34q-31 -61 -57.5 -106.5t-55 -86t-61.5 -81t-77 -92.5h205l109 351l74 15l-123 -366h28q32 0 65.5 2t50.5 4l-30 -56q-12 2 -32.5 3.5t-41.5 1.5h-54q-5 -14 -13.5 -45.5t-18 -66
t-17.5 -63.5t-10 -39l-74 -15z" />
    <glyph glyph-name="five" unicode="5" 
d="M183 420q11 -3 31 -9t44 -17t49 -27.5t45 -40t33 -55t13 -71.5q0 -42 -18 -80.5t-50 -68.5t-76.5 -48t-97.5 -18q-36 0 -72 9t-70 24l8 24q30 -14 62.5 -23t65.5 -9q40 0 74.5 16t60 42t39.5 59t14 68q0 36 -12 63t-31.5 46t-43.5 31.5t-47 19.5t-43 10.5t-31 4.5l52 96
q7 14 17 36l20 44t18 40.5t11 27.5q7 -1 31.5 -2.5t49.5 -1.5h73q26 0 52 1t52 3l-35 -59h-219z" />
    <glyph glyph-name="six" unicode="6" 
d="M521 576q-43 19 -85 19q-50 0 -90 -19t-70.5 -49t-52.5 -66.5t-36.5 -72t-22 -66t-8.5 -47.5l2 -2q7 13 19 29t30.5 30t43.5 24t58 10q66 0 103 -42.5t37 -108.5q0 -43 -15.5 -84.5t-43.5 -73.5t-66.5 -52t-83.5 -20q-77 0 -121.5 54t-44.5 151q0 46 12.5 96.5t35.5 99
t55.5 92t73 76t88 52t99.5 19.5q36 0 57 -6.5t38 -14.5zM139 135q0 -59 26.5 -97t78.5 -38q31 0 58 17.5t46 47t30 68t11 80.5q0 26 -6.5 49.5t-19 41t-31.5 27.5t-43 10q-30 0 -57 -13.5t-47.5 -40t-33 -65t-12.5 -87.5z" />
    <glyph glyph-name="seven" unicode="7" 
d="M49 -15q7 37 33.5 87t67.5 109.5t95 125t116 132.5l112 121h-97q-78 0 -130.5 -9t-87.5 -18l44 81q19 -2 36.5 -3t37.5 -1h177q27 0 46 2t37 6l11 -8q-33 -34 -75 -80.5t-86.5 -99t-87 -110t-76.5 -114t-56.5 -109.5t-26.5 -97z" />
    <glyph glyph-name="eight" unicode="8" 
d="M219 -15q-33 0 -64 8.5t-55 25.5t-38.5 44t-14.5 63q0 46 22 81.5t53.5 61.5t66.5 42.5t60 22.5q-5 4 -17 14.5t-24 27t-21 39t-9 50.5q0 31 12.5 59.5t35.5 51t55.5 36t73.5 13.5q36 0 61.5 -9t42 -24t24 -34t7.5 -39q0 -38 -19 -66.5t-46 -49.5t-55.5 -35.5
t-47.5 -22.5q8 -6 26.5 -20.5t38 -36t34 -50t14.5 -63.5q0 -38 -16.5 -72t-45.5 -60.5t-68.5 -42t-85.5 -15.5zM112 124q0 -63 34 -93.5t85 -30.5q31 0 56.5 12.5t44 33.5t28.5 48.5t10 57.5q0 36 -12.5 64t-30 48.5t-35 34t-27.5 21.5q-22 -8 -48.5 -23.5t-50 -39
t-39 -56.5t-15.5 -77zM233 479q0 -26 9 -46.5t21.5 -35.5t25 -25.5t18.5 -15.5q16 8 39 21t44 32.5t35.5 46t14.5 61.5q0 45 -24 69t-64 24q-25 0 -47 -10.5t-38 -28.5t-25 -41.5t-9 -50.5z" />
    <glyph glyph-name="nine" unicode="9" 
d="M17 28q19 -13 40.5 -18t43.5 -5q50 0 90.5 20.5t71.5 52t53.5 70.5t37.5 75.5t23.5 66t11.5 43.5l-2 2q-6 -9 -19 -24t-33 -30t-46.5 -26t-60.5 -11q-61 0 -99 41t-38 110q0 42 15.5 83.5t43.5 74t66.5 52.5t85.5 20q78 0 123 -55.5t45 -150.5q0 -48 -13 -99t-37 -99.5
t-57.5 -91t-75 -75t-89.5 -51t-101 -18.5q-48 0 -93 20zM151 393q0 -57 28 -90.5t73 -33.5q27 0 53.5 13.5t47.5 38.5t34 61.5t13 82.5q0 65 -25 105t-83 40q-31 0 -57 -18t-44.5 -48t-29 -69t-10.5 -82z" />
    <glyph glyph-name="colon" unicode=":" horiz-adv-x="278" 
d="M93 -15q-25 0 -38 13t-13 33q0 21 13.5 35.5t33.5 14.5q23 0 36.5 -13.5t13.5 -33.5t-13 -34.5t-33 -14.5zM203 339q-25 0 -38 13t-13 33q0 21 13.5 35.5t33.5 14.5q23 0 36.5 -13.5t13.5 -33.5t-13 -34.5t-33 -14.5z" />
    <glyph glyph-name="semicolon" unicode=";" horiz-adv-x="278" 
d="M-10 -104q16 3 31.5 11.5t28.5 19.5t21 25t8 28q0 7 -4.5 13.5t-10 13t-10 14t-4.5 17.5q0 17 12 30t34 13q18 0 30 -13t12 -34q0 -33 -17 -60t-40 -47t-47.5 -32t-40.5 -14zM208 339q-25 0 -38 13t-13 33q0 21 13.5 35.5t33.5 14.5q23 0 36.5 -13.5t13.5 -33.5
t-13 -34.5t-33 -14.5z" />
    <glyph glyph-name="less" unicode="&#x3c;" 
d="M52 188v40l400 209v-50l-351 -179l351 -173v-50z" />
    <glyph glyph-name="equal" unicode="=" 
d="M62 180h400v-40h-400v40zM62 280h400v-40h-400v40z" />
    <glyph glyph-name="greater" unicode="&#x3e;" 
d="M86 35l350 173l-350 179v50l399 -209v-40l-399 -203v50z" />
    <glyph glyph-name="question" unicode="?" horiz-adv-x="426" 
d="M131 133q-6 19 -6 42q0 47 17 82t42.5 63t55.5 51t55.5 47t42.5 51.5t17 63.5q0 39 -24 63t-62 24q-29 0 -51.5 -11t-32.5 -16l-9 18q12 7 38.5 18t68.5 11q37 0 62 -10t40.5 -26t22.5 -36t7 -41q0 -37 -18.5 -63.5t-46.5 -48t-60 -40.5t-60 -41t-46.5 -49t-18.5 -64
q0 -19 5.5 -37.5t15.5 -35.5zM114 -15q-18 0 -31.5 13t-13.5 32q0 18 13.5 31.5t31.5 13.5t31.5 -13.5t13.5 -31.5q0 -19 -13.5 -32t-31.5 -13z" />
    <glyph glyph-name="at" unicode="@" horiz-adv-x="1000" 
d="M333 123q0 -25 10 -46.5t39 -21.5q33 0 70.5 28.5t70 70t53.5 88.5t21 84q0 36 -16.5 60t-48.5 24q-28 0 -53.5 -15.5t-47.5 -40.5t-40.5 -56t-31 -63t-19.5 -61.5t-7 -50.5zM94 168q0 89 36 169.5t97.5 142t143 98t171.5 36.5q76 0 142 -24t115 -66.5t77 -102t28 -131.5
q0 -52 -20.5 -95.5t-53.5 -78t-75 -59.5t-84 -40q-11 -4 -24.5 -6t-23.5 -3l-18 -1q-30 0 -41.5 14.5t-11.5 31.5q0 18 5.5 37.5t11.5 36.5l54 153l-6 2q-3 -11 -14 -35.5t-29 -55t-42.5 -63.5t-53.5 -59.5t-63.5 -44t-71.5 -17.5q-39 0 -63 26t-24 68q0 31 14 68.5
t37.5 75.5t54.5 74t65.5 63.5t70.5 44.5t69 17q69 0 69 -77q0 -13 -2.5 -26t-4.5 -26l7 -1l43 121l86 9q-2 -3 -7.5 -15t-15 -36.5t-24.5 -65t-36 -101.5q-7 -19 -15 -42.5t-14.5 -46t-11 -41.5t-4.5 -29q0 -5 6 -9.5t14 -4.5q35 0 71 22.5t64.5 57.5t46.5 76.5t18 80.5
q0 64 -25.5 118t-69 93t-100.5 60.5t-119 21.5q-73 0 -145.5 -33t-130.5 -89.5t-94.5 -132t-36.5 -159.5q0 -75 30.5 -133.5t83.5 -99t124 -62t151 -21.5q64 0 111.5 17.5t81 39.5t53 43t28.5 28q2 1 4 3l-14 -25q-10 -11 -31.5 -31.5t-56 -40.5t-83 -35t-112.5 -15
q-89 0 -164.5 24.5t-130.5 68t-86 104.5t-31 134z" />
    <glyph glyph-name="A" unicode="A" horiz-adv-x="796" 
d="M354 205q-17 -31 -40 -69t-53.5 -71.5t-71 -56.5t-92.5 -23q-35 0 -61.5 10.5t-44 26.5t-26.5 36t-9 40q0 55 31.5 89t82.5 53.5t115.5 26.5t131.5 7h47q31 48 61.5 93.5t63 89t69 84.5t80.5 81l109 25q-8 -18 -23 -57.5t-29 -91t-24.5 -110.5t-10.5 -116
q0 -74 13 -115.5t25 -60.5l-25 -24q-11 25 -22 64.5t-11 110.5q0 59 10 117.5t23.5 109.5t27 91.5t21.5 62.5l-33 -6q-9 -27 -23.5 -74.5t-28 -105.5t-23 -121.5t-9.5 -121.5q0 -62 5 -98t17 -55t31.5 -24t47.5 -6l-5 -16l-137 -4q-5 16 -8.5 38t-6 45t-3.5 45t-1 38
q0 23 1 46t3 46h-168zM298 254q-20 0 -49 -1t-61.5 -5.5t-65 -13t-58.5 -24t-42 -39t-16 -57.5q0 -25 9.5 -44.5t25 -32.5t36.5 -20t44 -7q38 0 67 16.5t53.5 45t46 66t44.5 80.5l19 36h-53zM550 274q4 39 12 80.5t18 82.5t22 80.5t24 72.5l-2 2q-70 -80 -128.5 -159
t-103.5 -159h158z" />
    <glyph glyph-name="B" unicode="B" horiz-adv-x="778" 
d="M349 129q0 -36 9.5 -60.5t26 -40t38.5 -22t48 -6.5q35 0 62.5 12.5t46 34t28.5 50.5t10 61q0 38 -12 66.5t-31 48t-43 32t-47 19.5t-43.5 9.5t-32.5 2.5q-6 0 -12 -0.5t-11 -1.5q-3 -10 -9.5 -32.5t-12.5 -51t-10.5 -60.5t-4.5 -61zM471 -15q-69 0 -105.5 34t-36.5 113
q0 30 7 72.5t19.5 89t29 93t35.5 82.5q48 91 105.5 131t112.5 40q19 0 37.5 -6.5t32.5 -19.5t23 -32.5t9 -45.5q0 -48 -27 -82t-65.5 -57t-82 -36.5t-76.5 -19.5v-2q34 -6 69 -19t64 -34t47.5 -51t18.5 -71q0 -34 -16 -66t-45 -57t-69 -40.5t-87 -15.5zM391 354q22 -3 45 -3
q49 0 93 15.5t76 41.5t51 59.5t19 70.5q0 29 -17 50.5t-52 21.5q-47 0 -87.5 -36.5t-78.5 -103.5q-9 -14 -17.5 -33t-15 -37t-11 -31t-5.5 -15zM193 -10q4 34 16 84t28 107t36 118t40 117.5t38.5 103.5t33.5 78q-8 1 -15.5 1.5t-15.5 0.5q-48 0 -92.5 -9.5t-79 -28.5
t-55 -48t-20.5 -68q0 -11 4 -21t6 -21l-60 -20q5 68 33 113t77.5 72.5t120 40t160.5 15.5q-24 -59 -51.5 -132t-52.5 -151.5t-44.5 -157t-26.5 -147.5q12 -11 24 -17.5t39 -19.5z" />
    <glyph glyph-name="C" unicode="C" horiz-adv-x="574" 
d="M504 38q-13 -5 -34 -13.5t-49.5 -17.5t-64.5 -15.5t-79 -6.5q-112 0 -171.5 53.5t-59.5 159.5q0 48 13.5 99.5t38 100.5t60 93t79 77t94.5 52.5t107 19.5q37 0 69 -6.5t57.5 -15t43 -16.5t25.5 -12l-40 -94q-3 9 -11.5 28.5t-25 39.5t-42.5 35.5t-65 15.5
q-47 0 -90.5 -31.5t-76.5 -80.5t-53 -110t-20 -119q0 -27 6 -54.5t18 -49.5t31.5 -36t46.5 -14q11 0 20 2.5t20 9.5l-42 -47q-24 1 -46 11.5t-38.5 31.5t-26 53t-9.5 76q0 75 22 138t54 110t69 76.5t66 36.5l-2 4q-50 -1 -99 -38t-89 -96t-64.5 -134t-24.5 -151
q0 -43 14 -77.5t39.5 -59t61 -38t79.5 -13.5q36 0 68 7t58.5 16t46 19t30.5 16z" />
    <glyph glyph-name="D" unicode="D" horiz-adv-x="889" 
d="M192 -10q3 36 14 85.5t26.5 105t34 114t37 112t35.5 99.5t30 78h55q-20 -53 -44.5 -121t-48 -142t-42 -148.5t-25.5 -140.5q13 -11 22 -16t29 -16zM57 383q0 67 30 113t85 74.5t132 41.5t172 13q78 0 146.5 -11t119 -39.5t79.5 -77.5t29 -124q0 -73 -31.5 -142.5
t-84.5 -124t-122 -88t-143 -33.5q-39 0 -66 11t-44 30.5t-25 45.5t-8 55q0 56 14.5 118.5t34 119t40 101t31.5 64.5l46 11q-17 -14 -34 -42.5t-33.5 -65t-30.5 -79t-25 -84t-17 -79t-6 -64.5q0 -23 6 -45t20.5 -39t39.5 -27.5t63 -10.5q67 0 122 31t94.5 82t61.5 116t22 133
q0 67 -27 112.5t-74.5 73.5t-112 40t-139.5 12q-62 0 -118.5 -8t-100.5 -26.5t-70 -50t-26 -78.5q0 -21 10 -40z" />
    <glyph glyph-name="E" unicode="E" horiz-adv-x="685" 
d="M573 1q-29 -6 -58 -6q-77 0 -123 12.5t-66 22.5q0 11 -1 19.5t-1 19.5q0 47 9 101t23.5 108.5t31.5 106t33 94t29 73t19 43.5q-23 5 -45.5 7.5t-45.5 2.5q-59 0 -107.5 -10t-84 -30t-55 -50t-19.5 -70q0 -11 3 -20.5t7 -19.5l-60 -20q4 57 27 101.5t70.5 75.5t122 47
t179.5 16q55 0 110 -3t111 -3q29 0 49.5 1.5t35.5 4t24.5 5.5t17.5 5q-5 -6 -13 -15t-16.5 -19t-16 -19t-11.5 -13h-10q-75 0 -136.5 8t-120.5 15q-11 -21 -24 -51t-25 -63t-23 -65t-19 -57h192l-34 -35q-28 9 -52.5 12t-62.5 3h-50q-1 -5 -6.5 -24.5t-11.5 -48.5
t-10.5 -65.5t-4.5 -75.5q0 -14 1.5 -28.5t3.5 -28.5q14 -5 51 -15t102 -10q29 0 58.5 4.5t57.5 14.5zM193 -10q3 36 14.5 85.5t28 105t35.5 114t38.5 112t37 99.5t30.5 78h55q-20 -53 -44.5 -121t-48 -142t-42 -148.5t-25.5 -140.5q13 -11 22 -16t29 -16z" />
    <glyph glyph-name="F" unicode="F" horiz-adv-x="630" 
d="M324 -11q-11 41 -11 83q0 39 9.5 89.5t24 104t32 107t33.5 98.5t29 78t18 46q-20 5 -40 7.5t-41 2.5q-59 0 -107.5 -10t-84 -30t-55 -50t-19.5 -70q0 -11 3 -20.5t7 -19.5l-60 -20q4 57 27 101.5t70.5 75.5t122 47t179.5 16q55 0 110 -3t111 -3q29 0 49.5 1.5t35.5 4
t24.5 5.5t17.5 5q-5 -6 -13 -15t-16.5 -19t-16 -19t-11.5 -13h-10q-78 0 -142 8t-125 15q-11 -22 -23 -54.5t-24 -68.5t-23 -71t-20 -63h192l-34 -35q-26 9 -48 12t-57 3h-60q-3 -8 -9.5 -28.5t-12.5 -49.5t-10.5 -66t-4.5 -79q0 -24 4.5 -47t18.5 -49zM176 -100
q3 42 14.5 99t28.5 121t38 131t41.5 129t39 115t32.5 89h55q-16 -41 -35 -94.5t-38.5 -112t-38 -119.5t-33 -117.5t-23 -106.5t-8.5 -86q0 -5 0.5 -10.5t1.5 -12.5z" />
    <glyph glyph-name="G" unicode="G" horiz-adv-x="667" 
d="M357 285l70 -4t70 -2q59 0 115 6q-26 -44 -46.5 -93.5t-37.5 -97t-32 -88t-30 -66.5q-44 -75 -101.5 -104t-114.5 -29q-44 0 -72 8t-45 19.5t-25.5 24t-13.5 22.5l63 38q-1 -5 -1.5 -8.5t-0.5 -8.5q0 -12 4.5 -26t16 -26t31.5 -20t51 -8q50 0 88 31.5t64 81.5
q17 33 32.5 72t31 80.5t30.5 82t30 75.5q2 4 3 7t3 7h-110q17 -20 29.5 -44.5t12.5 -50.5q0 -35 -16.5 -67.5t-45.5 -57t-68.5 -39.5t-86.5 -15t-86.5 14t-68 41t-44 66.5t-15.5 89.5t14 102.5t39 102t60.5 93t78.5 76t92 51.5t102 19q39 0 72.5 -6t60 -14.5t44 -16
l24.5 -10.5l-42 -97q-3 11 -11.5 31.5t-27.5 41t-50 36t-79 15.5q-45 0 -84.5 -19.5t-72 -52.5t-57.5 -76t-42.5 -89.5t-26.5 -94t-9 -88.5q0 -84 43 -134.5t115 -50.5q32 0 62.5 12.5t54 33t37.5 47.5t14 56q0 44 -27 69.5t-65 25.5q-8 0 -16.5 -1t-16.5 -3z" />
    <glyph glyph-name="H" unicode="H" horiz-adv-x="852" 
d="M184 -10q3 27 10.5 64t19 80.5t25.5 90.5t30 95h-15q-26 0 -44 -2t-31.5 -5.5t-24 -8.5t-20.5 -10l21 37q11 2 25.5 3t29.5 1h64q13 40 27 78t27.5 72.5t26 63t22.5 49.5q-8 1 -15.5 1.5t-15.5 0.5q-48 0 -92.5 -9.5t-79 -28.5t-55 -48t-20.5 -68q0 -11 4 -21t6 -21
l-60 -20q5 68 33 113t77.5 72.5t120 40t160.5 15.5q-25 -61 -52.5 -135.5t-53.5 -154.5h31q7 27 20.5 66t29 80t31.5 79.5t28 64.5h16q-14 -27 -30 -65t-31 -78.5t-28 -79.5t-20 -67h210q3 10 14.5 41.5t30 72t43.5 85t55.5 81.5t66 61t74.5 24q29 0 45 -22.5t16 -53.5
q0 -50 -24.5 -102.5t-64 -96t-89.5 -73t-101 -32.5q-3 -9 -8.5 -30t-11 -48t-9.5 -57.5t-4 -60.5q0 -50 16 -79.5t63 -29.5h16l-6 -15l-152 -10q-5 17 -8.5 40.5t-3.5 61.5t4.5 73t10.5 64.5t12.5 52.5t10.5 38h-210q-5 -17 -11.5 -48.5t-13.5 -66.5t-11.5 -67.5t-4.5 -52.5
q0 -14 5.5 -39.5t19.5 -45.5l-40 -10q-10 29 -10 59q0 37 6.5 79.5t14.5 81t16.5 68.5t11.5 42h-31q-23 -74 -39 -146.5t-25 -136.5q-2 -11 -2 -19.5t-1 -17.5zM859 680q-21 0 -43 -23.5t-43.5 -60t-40.5 -79t-34 -81t-25 -66.5t-12 -35q54 7 97.5 34.5t74 67.5t47 87
t16.5 94q0 21 -8.5 41.5t-28.5 20.5z" />
    <glyph glyph-name="I" unicode="I" horiz-adv-x="500" 
d="M186 -10q0 35 12 88.5t30 115t41 125t44 119.5t39 98.5t27 61.5q-8 1 -16.5 1.5t-16.5 0.5q-46 0 -89.5 -9.5t-77.5 -28.5t-54.5 -48t-20.5 -68q0 -11 1.5 -21t3.5 -21l-60 -20q4 66 31 110.5t74.5 72t115.5 41t155 17.5h65q0 -8 -23.5 -60.5t-54.5 -140.5
q-32 -93 -49.5 -180.5t-17.5 -159.5q0 -21 4.5 -44t15.5 -40l-41 -10q-6 17 -7 39t-1 37q0 43 9 96t23 109t31.5 110.5t34 101t30.5 80t22 47.5h-33q-9 -24 -24.5 -66.5t-33.5 -95t-36 -110.5t-33.5 -113.5t-26 -104.5t-12.5 -83q-1 -11 -1.5 -19.5t-1.5 -17.5z" />
    <glyph glyph-name="J" unicode="J" horiz-adv-x="500" 
d="M430 584q-3 -6 -11.5 -26.5t-20 -51.5t-25.5 -70.5t-27 -84.5q-12 -41 -25.5 -91t-25 -95t-19.5 -77t-9 -37q-14 -42 -38.5 -80t-56 -66.5t-67 -45t-70.5 -16.5q-33 0 -53 9t-30.5 21t-14.5 24.5t-5 18.5l52 41v-8q0 -6 2 -19t10 -25.5t25 -22t46 -9.5q46 0 83 29.5
t53 92.5l68 280q26 108 57 186.5t50 122.5h52zM314 -8q-4 19 -4 44q0 42 9 95t23 109t31.5 112t34.5 104.5t31.5 86t23.5 57.5h-77q-57 0 -106.5 -8.5t-86 -27t-58 -49t-22.5 -74.5q0 -16 5 -36l-60 -21q0 39 10.5 70t29 55t43.5 43t55 34q39 20 93.5 26t115.5 9l86 4
q-7 -16 -21.5 -49.5t-31 -79.5t-34 -100.5t-32 -112t-23.5 -114t-9 -106.5q0 -16 2 -32t8 -31z" />
    <glyph glyph-name="K" unicode="K" horiz-adv-x="759" 
d="M188 -10q4 42 17 96.5t30 113t37 118.5t40 113t38 96.5t31 70.5q-8 1 -15.5 1.5t-15.5 0.5q-48 0 -92.5 -9.5t-79 -28.5t-55 -48t-20.5 -68q0 -11 4 -21t6 -21l-60 -20q5 68 33 114.5t77.5 74.5t120 40t160.5 12h50q-14 -27 -29.5 -64.5t-30.5 -77t-27.5 -77t-19.5 -65.5
h9q11 11 36.5 38t60.5 60t78 68.5t88.5 65t91.5 48.5t87 19q19 0 37.5 -8t31.5 -22l-53 -54q-2 5 -6 12.5t-11.5 14.5t-18 12t-26.5 5q-36 0 -73.5 -16t-73 -40.5t-67.5 -54.5t-57.5 -58t-43.5 -50.5t-25 -31.5q5 -12 27 -56t55.5 -102.5t76.5 -123.5t89.5 -119.5t94 -90
t90.5 -35.5q14 0 25 5.5t18.5 14t11.5 18t4 17.5q0 3 -1 6.5t-2 6.5l67 24q-3 -8 -11 -26t-24 -36t-41 -31.5t-62 -13.5q-59 0 -115.5 34.5t-107.5 88t-94 117.5t-76 122t-53.5 102t-25.5 59h-14q-5 -17 -11.5 -47.5t-13 -64.5t-11 -67.5t-4.5 -55.5q0 -16 5.5 -44t19.5 -51
l-40 -10q-10 33 -10 69q0 43 7.5 92.5t20 101.5t29 104t33 99t33 86.5t29.5 67.5h-33q-28 -68 -53.5 -137t-47.5 -139.5t-39.5 -144.5t-28.5 -152q-2 -11 -2 -19.5t-1 -17.5z" />
    <glyph glyph-name="L" unicode="L" horiz-adv-x="500" 
d="M441 -11q-14 -2 -28.5 -3t-29.5 -1q-46 0 -82 4.5t-63 10.5t-45 12.5t-28 9.5q-15 -10 -41 -23.5t-73 -13.5q-50 0 -79 18.5t-29 48.5q0 26 20.5 40.5t45.5 14.5q19 0 45.5 -7t51.5 -15.5t45.5 -17t27.5 -11.5q25 34 41 82.5t28 105t24 118.5t29 123q5 17 11.5 32
t12.5 26q7 12 15 23l48 18q-32 -30 -50.5 -66.5t-30.5 -79t-20.5 -91.5t-19.5 -104q-6 -31 -13.5 -61.5t-16.5 -56.5t-19 -45t-22 -28q14 -4 50 -13t84 -9q60 0 96.5 14t60.5 27zM117 103q21 39 36 92t26.5 107.5t20.5 104.5t20 84q20 68 69 108.5t119 40.5q26 0 45 -6
t31.5 -15t20.5 -18t12 -15l-58 -62v16q0 36 -19 60.5t-57 24.5q-30 0 -51.5 -20t-37 -53t-25.5 -74.5t-18 -84t-14.5 -82.5t-13.5 -69q-7 -26 -14.5 -57t-23.5 -69zM70 59q-19 8 -37 15.5t-38 7.5q-14 0 -25.5 -8t-11.5 -22q0 -25 27.5 -38.5t65.5 -13.5q36 0 57.5 9
t38.5 19z" />
    <glyph glyph-name="M" unicode="M" horiz-adv-x="981" 
d="M189 -10q4 36 15.5 85.5t27.5 104.5t35.5 113t39.5 112t38.5 100.5t33.5 78.5h38q3 -32 11 -62t17.5 -61.5t21 -65t22.5 -71.5q20 -73 28.5 -119t10.5 -80h2q10 22 20 41q-14 85 -44 178.5t-56 184.5q-11 36 -11 71h-48q-56 0 -107 -7.5t-90 -26t-62 -49t-23 -76.5
q0 -9 1.5 -18t3.5 -19l-60 -19q3 26 10.5 54t23.5 55t43 50.5t69 41.5t101.5 28.5t140.5 10.5h15q-1 -7 -2 -13.5t-1 -14.5q0 -24 7.5 -57t18.5 -69t23.5 -72t21.5 -67q14 -42 22.5 -82.5t13.5 -64.5q43 71 84.5 127.5t85 107.5t92 100t106.5 105l36 5q-17 -29 -38 -81
t-39 -118t-30.5 -142.5t-12.5 -154.5q0 -63 16 -88.5t60 -25.5h17l-5 -20l-151 -10q-7 23 -9.5 46.5t-2.5 47.5q0 72 9.5 143.5t24 133t30.5 109t28 72.5l-2 2q-28 -28 -61 -67.5t-67 -86t-66.5 -96t-60.5 -97t-49 -90t-31 -73.5l-54 -34q2 14 3 27.5t1 27.5q0 62 -12 125.5
t-28.5 121t-32.5 105t-25 78.5q-3 7 -3 15h-2q-5 -12 -16.5 -44t-25.5 -74.5t-29 -92.5t-27 -99t-20 -93t-8 -75q0 -5 1 -11t2 -11z" />
    <glyph glyph-name="N" unicode="N" horiz-adv-x="852" 
d="M190 -10q4 37 15.5 88.5t28.5 109t37 117.5t40.5 115.5t40 102t34.5 77.5h-11q-56 0 -104.5 -9t-84 -28.5t-56 -49t-20.5 -70.5q0 -10 1.5 -19t3.5 -18l-60 -21q0 51 18 88.5t48 64t69 43t81 26t84.5 13.5t78.5 5q7 -61 27 -131t48 -140t62.5 -135.5t70.5 -118.5h2
q0 9 1 18.5t3 18.5q-35 49 -66 108.5t-56 123.5t-41.5 128t-22.5 122l35 16q-1 -8 -2 -15.5t-1 -16.5q0 -68 20 -138.5t46.5 -131.5t52.5 -107.5t39 -65.5q2 11 9 39.5t18 68.5t27.5 87.5t37.5 95.5t47.5 93t59 79.5t70.5 55.5t82 21q24 0 41.5 -6.5t28.5 -15.5t16 -19.5
t6 -17.5l-75 -43q1 6 3 12.5t2 12.5q0 18 -14 30t-32 12q-38 0 -72.5 -25.5t-64.5 -68.5t-55.5 -98.5t-46 -115t-36.5 -118.5t-27 -109.5t-17 -87.5t-6 -52q-46 49 -88 118t-77.5 144.5t-62 150t-41.5 134.5h-2q-5 -13 -17 -48t-27.5 -82.5t-31.5 -102.5t-29.5 -107.5
t-22 -99t-8.5 -75.5q0 -5 1 -11t2 -11z" />
    <glyph glyph-name="O" unicode="O" horiz-adv-x="685" 
d="M254 -15q-94 0 -150.5 55t-56.5 156q0 49 13.5 100.5t38 101t59 93.5t77 77t91 52.5t101.5 19.5q98 0 154 -54t56 -151q0 -77 -30.5 -156.5t-82.5 -145t-121.5 -107t-148.5 -41.5zM311 87q-27 0 -50 13t-39.5 35.5t-25.5 53t-9 66.5q0 38 12 91t37.5 106t66.5 98.5
t98 69.5l-2 5q-48 -4 -96.5 -42t-87.5 -98t-63.5 -136t-24.5 -155q0 -39 8 -74.5t25 -62t42.5 -42t60.5 -15.5q58 0 112.5 37t95.5 98t66 137.5t25 156.5q0 37 -8 71.5t-23 61t-37.5 42.5t-51.5 16q-39 0 -78.5 -30t-71.5 -78t-52.5 -108.5t-20.5 -121.5q0 -27 5 -54.5
t16 -50t29 -36.5t44 -14q15 0 29 7.5t27 16.5l-58 -64v0z" />
    <glyph glyph-name="P" unicode="P" horiz-adv-x="704" 
d="M324 -8q-5 19 -6.5 37.5t-1.5 38.5q0 35 8.5 91t25.5 119.5t43.5 128t62.5 116.5t81.5 84.5t101.5 32.5q50 0 76.5 -31t26.5 -86q0 -49 -20 -94t-52.5 -79.5t-74 -55t-83.5 -20.5q-22 0 -38.5 5.5t-28.5 12.5t-20 14.5t-12 11.5l30 50q2 -6 8 -19t16.5 -26.5t26.5 -23.5
t39 -10q29 0 55.5 22t46 54.5t31 70t11.5 69.5q0 18 -5 35t-14 30.5t-22.5 21.5t-29.5 8q-32 0 -64 -19.5t-61 -54t-53.5 -81.5t-43 -101.5t-28.5 -114.5t-10 -120q0 -28 4 -56t15 -53zM189 -10q3 39 15.5 93.5t31 116t40.5 124t42.5 117.5t37.5 96.5t26 60.5
q-8 1 -16.5 1.5t-16.5 0.5q-46 0 -89.5 -9.5t-77.5 -28.5t-54.5 -48t-20.5 -68q0 -11 1.5 -21t3.5 -21l-60 -20q4 65 29.5 110.5t71 74.5t110.5 42.5t148 13.5h31q-14 -32 -31.5 -78.5t-35.5 -100.5t-36 -111.5t-32.5 -112t-24.5 -102.5t-12 -83q-2 -11 -2 -19.5t-1 -17.5z
" />
    <glyph glyph-name="Q" unicode="Q" horiz-adv-x="611" 
d="M431 -194q-55 18 -124 45t-138.5 57.5t-132.5 61.5t-107 58l115 61q4 -5 14.5 -15.5t27.5 -21t39.5 -19t50.5 -8.5q66 0 124 36t101 94t68 131.5t25 148.5q0 40 -7 75t-21.5 60.5t-37 40t-53.5 14.5q-36 0 -70 -17.5t-63 -47t-53 -66.5t-41 -76.5t-26.5 -77t-9.5 -67.5
q0 -51 23 -86t71 -35q14 0 27.5 5t25.5 13l-50 -69q-8 -2 -15 -3t-14 -1q-70 0 -101.5 41t-31.5 111q0 63 27 131.5t72.5 126.5t106 95.5t126.5 37.5q41 0 75.5 -18t60 -47.5t40 -67.5t14.5 -79q0 -87 -33 -164t-86.5 -134.5t-120.5 -91t-135 -33.5q-35 0 -61.5 9
t-45.5 20.5t-31 23t-17 16.5l-40 -23q50 -32 114 -65t136 -62t149 -51t153 -31z" />
    <glyph glyph-name="R" unicode="R" horiz-adv-x="759" 
d="M322 -10q-5 17 -7 35.5t-2 36.5q0 33 8.5 90.5t26 124.5t44 136t62 125t81 91.5t101.5 35.5q18 0 36.5 -6.5t33 -19.5t24 -31.5t9.5 -43.5q0 -54 -30.5 -92.5t-73 -64.5t-86.5 -40t-71 -18q16 -34 41.5 -86.5t57.5 -111t69.5 -117t77 -106t80.5 -77t80 -29.5q13 0 23.5 6
t17.5 14t10.5 17.5t3.5 16.5q0 4 -1 7.5t-2 8.5l66 22q-2 -10 -11 -28t-26 -35.5t-42.5 -30.5t-60.5 -13q-52 0 -99.5 28t-90 73.5t-80 104.5t-70 120t-60 119.5t-49.5 104.5h12q42 0 86 13.5t80.5 38t59.5 57.5t23 72q0 40 -21 63.5t-53 23.5q-36 0 -66.5 -21.5t-56.5 -58
t-47.5 -86t-39.5 -106.5q-25 -76 -36 -144.5t-11 -118.5q0 -45 7 -63.5t11 -26.5zM186 -10q3 39 15.5 93.5t31 116t40.5 124t42.5 117.5t37.5 96.5t26 60.5q-8 1 -16.5 1.5t-16.5 0.5q-46 0 -89.5 -9.5t-77.5 -28.5t-54.5 -48t-20.5 -68q0 -11 1.5 -21t3.5 -21l-60 -20
q4 65 29.5 110.5t71 74.5t110.5 42.5t148 13.5h31q-14 -32 -31 -78.5t-35.5 -100.5t-36 -111.5t-32.5 -112t-25 -103t-12 -82.5q-2 -11 -2 -19.5t-1 -17.5z" />
    <glyph glyph-name="S" unicode="S" horiz-adv-x="481" 
d="M198 587q-8 -11 -20.5 -34.5t-12.5 -58.5q0 -31 14 -59.5t35 -55t45 -53t45 -54.5t35 -58.5t14 -65.5q0 -20 -4.5 -35t-11.5 -27t-14 -20.5t-12 -14.5q15 2 30.5 9.5t28 21t20 32t7.5 42.5q0 36 -15 67.5t-38 60.5t-49.5 56.5t-49.5 55.5t-38 57.5t-15 62.5q0 21 6.5 43
t22 40t40.5 29.5t62 11.5q25 0 46.5 -4.5t38 -11t28 -13t18.5 -10.5l-25 -63q-3 6 -10 19t-20 26t-33 22.5t-48 9.5q-29 0 -49 -10t-33 -25.5t-18.5 -34t-5.5 -36.5q0 -29 15 -56.5t37 -55t48 -54.5t48 -56.5t37 -62t15 -68.5q0 -34 -13.5 -58.5t-33.5 -40.5t-44 -24.5
t-46 -9.5q-11 -10 -40.5 -24t-81.5 -14q-38 0 -72 10t-60.5 28.5t-42 44.5t-15.5 59v11l65 50q-4 -12 -7 -24.5t-3 -26.5q0 -24 10 -48.5t29.5 -44t47 -32t62.5 -12.5t59 12.5t39 32t21.5 43.5t6.5 46q0 34 -13 63t-33 55.5t-43 52t-43 52t-33 56t-13 64.5q0 33 10 54t15 29
z" />
    <glyph glyph-name="T" unicode="T" horiz-adv-x="630" 
d="M34 404q0 30 12 69t41 74t77.5 59t120.5 24q100 0 184 -4t162 -4q15 0 38.5 0.5t49 1.5l51 2t44.5 2l-50 -56q-13 -2 -27.5 -2.5t-28.5 -0.5q-12 0 -43.5 2t-66.5 4t-66 4t-43 2q-7 -16 -19.5 -45.5t-26.5 -69t-28.5 -85.5t-26 -93.5t-19 -94.5t-7.5 -88q0 -27 4.5 -54
t15.5 -51l-40 -7q-6 17 -8 35.5t-2 37.5q0 43 9 94t22.5 104t30 104t32 94t28 74.5t18.5 44.5h-50q-42 0 -81.5 2t-81.5 2q-81 0 -128 -29.5t-47 -83.5q0 -17 2.5 -26.5t7.5 -20.5zM208 -10q4 42 15 92t26 103t32.5 107t35.5 104t34.5 93t29.5 75h54q-2 -5 -9 -24.5t-17 -48
t-22 -63t-23 -69.5q-32 -100 -48.5 -181t-26.5 -141q-2 -11 -2 -19.5t-1 -17.5z" />
    <glyph glyph-name="U" unicode="U" horiz-adv-x="796" 
d="M686 610q-2 -10 -18.5 -68t-48.5 -153q-24 -70 -51 -142t-61 -130t-78.5 -95t-102.5 -37q-34 0 -60 13.5t-44 37t-27 55.5t-9 69q0 53 13 103.5t33.5 96t45.5 85t49 70.5t44.5 53t31.5 32h-23q-53 0 -102 -8.5t-86.5 -27t-60 -49t-22.5 -74.5q0 -10 1.5 -19t3.5 -18
l-60 -20q0 64 29.5 109.5t82 75t125 43t157.5 13.5q-24 -24 -56 -69.5t-61.5 -105t-49.5 -128t-20 -138.5q0 -24 5.5 -48.5t17.5 -44.5t30 -33t43 -13q42 0 77.5 30t65.5 79t55.5 110.5t46.5 124.5q24 72 42 131t29 105h120q-4 -8 -18 -42.5t-32.5 -85t-39.5 -110.5
t-38 -119.5t-28.5 -113t-11.5 -90.5q0 -17 6 -25.5t15.5 -13t21.5 -5t23 -0.5l-5 -20l-152 -5q5 39 17 89.5t28 107t35.5 115.5t39.5 114t40 104t38 85h-46z" />
    <glyph glyph-name="V" unicode="V" horiz-adv-x="796" 
d="M350 -15q4 9 11 30.5t14.5 53.5t13 74.5t5.5 94.5q0 59 -14 120t-39.5 110.5t-62 80.5t-80.5 31q-31 0 -51.5 -14.5t-34 -34t-20 -38.5t-8.5 -27l-13 21q3 8 13 31.5t28.5 48t48 44t71.5 19.5q49 0 88.5 -28.5t67 -74t42 -102.5t14.5 -115q0 -54 -7.5 -103t-17.5 -89
t-21.5 -70t-18.5 -48zM417 -15q9 21 19 48.5t18 63t13.5 80t5.5 99.5q0 74 -10.5 128.5t-27 95.5t-37 71t-40.5 54l50 5q11 -22 26 -53.5t28 -76t22 -102t9 -130.5q0 -43 -5 -82t-11.5 -69.5t-13 -51t-8.5 -26.5l2 -2q11 12 37.5 40t60.5 65.5t71 83t67.5 92.5t50 93
t19.5 85q0 31 -5.5 50t-14.5 30.5t-19.5 17.5t-20.5 11l80 55q5 -8 11 -17t11.5 -22.5t9 -32t3.5 -45.5q0 -47 -22.5 -99.5t-57.5 -104.5t-77.5 -102t-83 -93t-74 -77t-49.5 -54q-3 -3 -5.5 -6.5t-4.5 -6.5z" />
    <glyph glyph-name="W" unicode="W" horiz-adv-x="1037" 
d="M329 -15q0 1 8.5 20t18.5 53.5t18 84t8 111.5q0 70 -14.5 129.5t-38.5 103t-56 68.5t-67 25q-31 0 -53 -14.5t-36 -34t-22 -38t-10 -26.5l-13 19q3 8 12.5 31.5t28 48.5t48 44.5t71.5 19.5q49 0 87 -26.5t64 -71.5t40 -103t14 -121q0 -57 -11.5 -109.5t-26 -94
t-27.5 -69.5t-16 -35zM396 -15q3 6 14 31t23.5 64.5t22 90.5t9.5 108q0 69 -10 122.5t-25.5 95.5t-35 73.5t-38.5 54.5l40 15q12 -23 27.5 -54.5t29 -73.5t23 -96t9.5 -121q0 -39 -6.5 -80t-15 -77t-17 -63.5t-12.5 -38.5l2 -2q37 40 71.5 81t63 85t49.5 91.5t32 100.5
q-18 51 -53 107.5t-86 98.5l56 42q22 -23 49.5 -57t51.5 -83t40.5 -115t16.5 -151q0 -17 -2.5 -45.5t-7 -61t-12 -66t-16.5 -61.5l-26 -15q6 17 17.5 64.5t11.5 133.5q0 57 -6 90.5t-12 58.5h-2q-17 -39 -45.5 -83t-62.5 -88.5t-71 -86t-70 -74.5zM726 -15q10 27 17 57.5
t11.5 60.5t6.5 58t2 51q0 87 -14.5 154t-35.5 117.5t-45.5 84.5t-43.5 55l35 17q22 -30 43 -70t38 -91.5t27.5 -115.5t10.5 -141q0 -45 -4.5 -88.5t-14.5 -85.5l2 -2q4 7 17.5 23.5t31 39t37 49t35.5 52.5q40 63 66 132t26 139q0 37 -5.5 61.5t-13 40t-15 23.5t-11.5 12
l64 42q17 -26 24 -57t7 -63q0 -59 -15.5 -114.5t-40 -105.5t-54.5 -95t-59.5 -83t-54.5 -69t-40 -53l-6 -10l-6 -10z" />
    <glyph glyph-name="X" unicode="X" horiz-adv-x="796" 
d="M445 327h-2q-6 -19 -22.5 -51.5t-41.5 -70.5t-58 -77t-72.5 -71t-84 -52t-93.5 -20q-32 0 -58 9t-44 24.5t-27.5 35.5t-9.5 43q0 4 0.5 7.5t1.5 8.5l72 47q-5 -13 -9.5 -25.5t-4.5 -26.5q0 -35 25 -56.5t62 -21.5q39 0 81.5 17.5t82.5 46.5t76.5 66.5t63.5 79t43 83.5
t16 79q0 38 -9 70.5t-26.5 56.5t-42.5 37.5t-57 13.5q-17 0 -32 -3l54 63q43 -2 74.5 -20.5t52.5 -50t31 -73.5t10 -91q0 -65 3 -127t7 -109q8 -51 25.5 -83t37.5 -50t40 -24.5t32 -6.5q22 0 38.5 6t29 14t21.5 17.5t15 16.5l-2 2q-17 -12 -34 -21t-45 -9q-35 0 -60.5 20.5
t-42 54.5t-25 77t-8.5 87q0 90 23.5 166.5t64 133t94.5 88.5t115 32q26 0 44 -7.5t29.5 -18t17 -21t5.5 -16.5l-73 -51q1 5 2 9t1 9q0 27 -15.5 41.5t-41.5 14.5q-46 0 -90.5 -30t-79 -82t-55.5 -122t-21 -151q0 -41 7 -80t22 -70t38.5 -50t56.5 -19q25 0 43 8t30.5 19
t20 22.5t11.5 17.5l12 -5q-8 -17 -20.5 -38t-33.5 -40t-52 -32t-75 -13q-47 0 -78 22.5t-50.5 61t-27.5 88.5t-8 104v66z" />
    <glyph glyph-name="Y" unicode="Y" horiz-adv-x="630" 
d="M496 125q-22 -71 -51.5 -129.5t-69 -100.5t-90.5 -65t-117 -23q-44 0 -73 8.5t-47 20t-27.5 24t-13.5 20.5l69 44q0 -4 -0.5 -7t-0.5 -7q0 -15 5.5 -30.5t19.5 -28.5t37.5 -21t58.5 -8q39 0 72.5 21.5t61.5 57t51.5 82t42.5 96.5t34 100.5t27 93.5l98 337h-23
q-1 -7 -7 -33t-16.5 -64.5t-25 -85.5t-33 -95t-40 -93t-46.5 -80t-52.5 -56.5t-57.5 -21.5q-27 0 -43 12.5t-25 34.5t-12 51t-5 62l-8 149q-3 59 -6 100t-10.5 66.5t-22 37t-40.5 11.5h-17l6 20l130 5q1 -5 3 -29t5 -58.5t6.5 -75t5.5 -77.5l9 -164q1 -43 8.5 -69t36.5 -26
q31 0 61 34t57 85.5t49.5 113t39 116.5t26.5 95t12 50h102z" />
    <glyph glyph-name="Z" unicode="Z" 
d="M130 130q3 29 19.5 64.5t41.5 73.5t56.5 78t65 78t66 71.5t59.5 60.5q-9 0 -37.5 4t-62.5 8.5t-67.5 8t-51.5 3.5q-27 0 -53.5 -6t-49.5 -18l59 81q22 3 45 3q38 0 67.5 -5.5t58.5 -11.5q29 -7 60.5 -12.5t73.5 -5.5q22 0 48 4t46 12l-33 -59q-54 -55 -93 -100
t-66.5 -82.5t-46.5 -69t-34 -58.5q-19 -34 -30.5 -59.5t-20 -45t-15.5 -35t-16 -28.5q-2 -2 -3.5 -4.5t-3.5 -5.5q6 -2 23 -7.5t39.5 -11.5t48 -10.5t48.5 -4.5q38 0 77.5 12.5t72.5 32.5l-39 -77q-23 -11 -47.5 -17t-48.5 -6q-36 0 -72.5 6t-66.5 14t-50.5 14.5t-25.5 8.5
q-7 -5 -16.5 -12.5t-23.5 -14.5t-32.5 -11.5t-42.5 -4.5q-48 0 -81 19t-33 50q0 18 8 30t20 19.5t25.5 10.5t24.5 3q20 0 47.5 -5t54 -12t47 -13t26.5 -8q9 9 20 30t24 49t27.5 59.5t30.5 62.5q22 44 54 88t63.5 81.5t59 66t41.5 40.5q-5 0 -8.5 -0.5t-8.5 -0.5
q-4 0 -12 0.5t-12 0.5q-34 -35 -77 -85.5t-83.5 -106t-71.5 -111t-41 -101.5zM-38 52q0 -23 27 -37.5t65 -14.5q42 0 63.5 12t35.5 22q-5 2 -24.5 9.5t-43.5 16t-48.5 15.5t-39.5 7q-14 0 -24.5 -8t-10.5 -22z" />
    <glyph glyph-name="bracketleft" unicode="[" horiz-adv-x="278" 
d="M402 712l-112 -40l-217 -686l73 -99l-16 -10l-112 126l217 688l161 39z" />
    <glyph glyph-name="backslash" unicode="\" horiz-adv-x="389" 
d="M306 -106q-8 38 -18 98t-26 134l-57 261q-17 78 -33.5 143.5t-32.5 109.5l71 -15q6 -39 16.5 -98t25.5 -129l61 -294q14 -69 30 -127.5t28 -97.5z" />
    <glyph glyph-name="bracketright" unicode="]" horiz-adv-x="278" 
d="M-96 -105l112 40l217 686l-73 99l16 10l112 -126l-217 -688l-161 -39z" />
    <glyph glyph-name="asciicircum" unicode="^" 
d="M260 730h40l209 -319h-49l-180 279l-175 -279h-49z" />
    <glyph glyph-name="underscore" unicode="_" horiz-adv-x="500" 
d="M0 -75h500v-50h-500v50z" />
    <glyph glyph-name="quoteleft" unicode="&#x2018;" horiz-adv-x="278" 
d="M304 625q-16 -3 -32 -11.5t-28.5 -19.5t-20.5 -25t-8 -28q0 -8 4.5 -14t10 -12.5t10 -14t4.5 -17.5q0 -17 -12 -30t-34 -13q-18 0 -30 13t-12 34q0 33 16.5 60t40 47t48 32t40.5 14z" />
    <glyph glyph-name="a" unicode="a" horiz-adv-x="519" 
d="M332 271q-3 -10 -13 -35.5t-26 -57t-37.5 -66t-48 -62.5t-57.5 -46.5t-65 -18.5q-37 0 -58 29t-21 73q0 31 12.5 69t33.5 76.5t49 75t59.5 65t64 45.5t63.5 17t46.5 -19.5t15.5 -55.5q0 -14 -2 -27.5t-5 -27.5l9 -2l39 124l74 8q-4 -9 -16 -40.5t-27 -80.5l-31 -100
q-6 -20 -13 -44t-13 -47.5t-10 -43t-4 -29.5q0 -9 5.5 -14.5t13.5 -5.5q19 0 43 15t50 38.5t51.5 51.5t47 54.5t37 47t21.5 28.5l-8 -25q-7 -9 -24 -31.5t-40.5 -51t-51.5 -59t-58 -55.5t-60 -41.5t-56 -16.5q-25 0 -35.5 16t-10.5 36q0 16 6 37t11 39l49 155zM71 109
q0 -13 2.5 -27t8.5 -25.5t15 -19t22 -7.5q32 0 67.5 30.5t65.5 75t49.5 93.5t19.5 87q0 35 -17 59.5t-49 24.5q-26 0 -49.5 -16t-44 -41t-37.5 -57t-28.5 -64.5t-18 -62t-6.5 -50.5z" />
    <glyph glyph-name="b" unicode="b" horiz-adv-x="481" 
d="M571 240q-8 -12 -24 -34t-38 -49t-48.5 -54.5t-56.5 -50.5t-63 -37.5t-67 -14.5q-17 0 -32.5 5t-30.5 12q-14 -8 -43.5 -20t-70.5 -12q-38 0 -58 20.5t-20 49.5q0 20 7 47.5t15 50.5l116 366q14 45 24.5 85t10.5 59q0 15 -6.5 22.5t-16.5 11t-22 4.5t-23 1l5 15l154 13
l-182 -577q-7 -20 -12 -45t-5 -41q0 -21 13.5 -39t52.5 -18q20 0 29 4.5t19 13.5q-25 20 -39.5 50t-14.5 83q0 34 12 81t36.5 90t61 73t84.5 30q21 0 38 -8.5t28.5 -22t17.5 -32t6 -37.5q0 -47 -22 -95.5t-53 -90.5t-63 -73.5t-53 -43.5q11 -5 22.5 -8.5t22.5 -3.5
q32 0 64.5 15t63 39t57.5 52.5t49.5 56t38.5 49.5l24 33zM164 171q0 -54 17 -84t39 -47q22 16 46.5 44.5t45 64.5t33.5 76t13 81q0 15 -3 31t-9.5 29t-18.5 21t-30 8q-23 0 -47 -19.5t-43 -51t-31 -71.5t-12 -82z" />
    <glyph glyph-name="c" unicode="c" horiz-adv-x="389" 
d="M478 240q-9 -15 -27 -40t-42.5 -53.5t-55.5 -57t-67 -52t-76.5 -38t-83.5 -14.5q-32 0 -54 9t-36 25t-20.5 36t-6.5 43q0 28 11 64.5t31 73.5t48 73t61.5 64t72 45t79.5 17q35 0 57 -7.5t36 -12.5l-27 -62q-5 7 -12.5 17t-18.5 19t-26.5 15t-36.5 6q-28 0 -54.5 -15
t-49.5 -39t-41.5 -55t-31.5 -63t-20.5 -63t-7.5 -55q0 -16 3 -33t12.5 -30.5t28 -22.5t49.5 -9q53 0 103 29t92 68.5t73 80t47 62.5z" />
    <glyph glyph-name="d" unicode="d" horiz-adv-x="519" 
d="M335 270q-4 -11 -14.5 -36t-26.5 -56.5t-37.5 -65.5t-47.5 -62.5t-56.5 -46.5t-63.5 -18q-38 0 -59.5 28.5t-21.5 72.5q0 32 12.5 70t34 77t49.5 75.5t59.5 64.5t64.5 45t63 17q31 0 45.5 -25.5t14.5 -56.5q0 -11 -1.5 -24t-3.5 -24h8l68 214q14 45 24.5 85t10.5 59
q0 15 -6.5 22.5t-16.5 11t-22 4.5t-23 1l5 15l154 13l-173 -546q-5 -16 -10.5 -35.5t-10 -38t-7.5 -34.5t-3 -24q0 -10 6 -16t14 -6q18 0 41.5 15t49.5 38t52 51t48.5 54t39 47t23.5 30l-8 -25q-8 -10 -26 -33t-42 -51.5t-53.5 -58.5t-59.5 -55t-59.5 -41t-54.5 -16
q-21 0 -31 13t-10 30q0 15 4.5 32.5t8.5 32.5l55 177h-7zM73 109q0 -12 3 -25t9 -24t15.5 -18t23.5 -7q19 0 41.5 14.5t45 38t43 53t36.5 60t25.5 59.5t9.5 51q0 35 -18.5 59.5t-50.5 24.5q-23 0 -45.5 -15t-43 -39t-38 -54.5t-30 -62.5t-19.5 -62t-7 -53z" />
    <glyph glyph-name="e" unicode="e" horiz-adv-x="389" 
d="M478 235q-12 -16 -30 -40.5t-42 -52.5t-54 -56t-65 -50.5t-75.5 -36.5t-84.5 -14q-58 0 -88 29.5t-30 83.5q0 33 12 70.5t32.5 75t48.5 72t60 61t66 42.5t67 16q26 0 44.5 -16.5t18.5 -49.5q0 -27 -17 -58.5t-46 -59.5t-68 -46.5t-83 -18.5q-27 0 -56 8q-6 -20 -10 -40
t-4 -40q0 -48 24 -68.5t67 -20.5q56 0 107.5 29t93.5 68t73 78t47 60zM263 415q-31 0 -58 -23.5t-49 -54t-36.5 -60.5t-19.5 -42q4 -3 12.5 -7.5t20 -9.5t25.5 -8.5t29 -3.5q24 0 45.5 14.5t37 37t24.5 50.5t9 54q0 20 -10 36.5t-30 16.5z" />
    <glyph glyph-name="f" unicode="f" horiz-adv-x="278" 
d="M141 429l19 59q37 118 96 180t143 62q20 0 41 -5t40 -13l-26 -81q-2 10 -6 24.5t-13 28t-24 22.5t-38 9q-24 0 -44.5 -14t-37 -37t-29.5 -54t-24 -65l-37 -116h205l-30 -27q-36 4 -72.5 5.5t-73.5 1.5h-35l-127 -403q-38 -123 -95.5 -187t-144.5 -64q-41 0 -81 19l25 81
q2 -11 6 -25.5t13 -27.5t24 -22.5t38 -9.5q27 0 48 15t38.5 43.5t32.5 68.5t31 91l132 421h-12q-23 0 -46 -2t-46 -5l23 27h87z" />
    <glyph glyph-name="g" unicode="g" horiz-adv-x="519" 
d="M610 240q-11 -15 -29.5 -39t-42 -52t-51 -56t-56 -51t-56.5 -37.5t-53 -15.5q-5 -14 -14 -37t-23.5 -49t-35 -52.5t-49 -47.5t-66 -34.5t-85.5 -13.5q-39 0 -73.5 8t-59.5 23t-39.5 36t-14.5 47q0 30 19 54.5t45.5 42.5t54 30t45.5 19q-19 28 -19 65q0 34 13 74t35 79.5
t50.5 76t60.5 64.5t65 44.5t63 16.5q29 0 45 -20t16 -57q0 -14 -2.5 -27t-5.5 -26h10l38 125l66 5q-4 -11 -20.5 -58.5t-36.5 -116.5l-74 -245q42 7 83.5 35.5t79 66t70 78t55.5 70.5zM335 270q-3 -10 -13.5 -35t-26.5 -57t-38 -66t-49 -62t-58.5 -46.5t-66.5 -18.5
q-25 0 -45 20q-16 -6 -37 -16.5t-39.5 -26t-31.5 -36t-13 -46.5q0 -23 11.5 -43t31.5 -35t47 -23.5t58 -8.5q37 0 66 13.5t52 41.5t42.5 71.5t37.5 102.5l83 271h-11zM72 111q0 -13 2.5 -26.5t8.5 -24.5t16 -18t25 -7q21 0 44 14t45.5 36.5t43 52t36 61t24.5 62.5t9 57
q0 29 -16 53t-49 24q-36 0 -70 -30.5t-60.5 -74.5t-42.5 -93t-16 -86z" />
    <glyph glyph-name="h" unicode="h" horiz-adv-x="519" 
d="M88 540v-6q0 -26 15 -44t42 -23q4 10 12 33t21 52.5t32 61t45 57t59 42.5t75 17q33 0 59 -17.5t26 -56.5q0 -38 -27 -74.5t-68 -67t-90 -51.5t-93 -28l-135 -430h12q8 16 22 54.5t35 86.5t47.5 99t58.5 93t69.5 69.5t79.5 27.5q26 0 44 -17.5t18 -45.5q0 -15 -5 -32
t-9 -31l-49 -154q-8 -24 -15.5 -53.5t-7.5 -48.5q0 -10 5.5 -16.5t14.5 -6.5q18 0 41.5 15.5t48.5 39t50 52t46 54.5t36 46t20 28l-8 -25q-6 -8 -21.5 -30t-38 -50.5t-50 -59.5t-56.5 -56.5t-57 -42t-52 -16.5q-23 0 -36 14t-13 31q0 14 3 30t8 30l66 207q5 14 9.5 32.5
t4.5 29.5q0 14 -9.5 25t-23.5 11q-29 0 -59.5 -27t-59 -68.5t-54 -90t-45.5 -92.5t-32.5 -76.5t-15.5 -40.5l-89 -15q15 48 30 95.5t30 95.5l83 263q-44 3 -62.5 23t-25.5 48zM365 715q-25 0 -45.5 -17t-37 -42.5t-29.5 -56.5t-22.5 -59.5t-16 -50.5t-10.5 -29
q35 1 74.5 15.5t73 39t55.5 58.5t22 75q0 31 -19 49t-45 18z" />
    <glyph glyph-name="i" unicode="i" horiz-adv-x="241" 
d="M336 235q-6 -8 -21.5 -30t-37.5 -49.5t-49 -57.5t-55 -55.5t-56.5 -41.5t-52.5 -16q-26 0 -38 18t-12 37q0 12 6.5 34.5t12.5 41.5l38 119q13 45 23 80.5t10 55.5q0 17 -10 27t-39 10h-22l5 15l157 12l-76 -239q-5 -16 -11.5 -36.5t-11.5 -40t-8.5 -35.5t-3.5 -23
q0 -13 4 -22t16 -9q18 0 41 14.5t47.5 37t49 50t45.5 53t36 46t21 29.5zM213 595q-22 0 -34 12t-12 31q0 20 12 34t34 14q19 0 32 -10.5t13 -33.5q0 -20 -13 -33.5t-32 -13.5z" />
    <glyph glyph-name="j" unicode="j" horiz-adv-x="222" 
d="M72 28q-19 -60 -39.5 -110.5t-47 -86.5t-59 -56t-75.5 -20q-44 0 -64.5 6t-36.5 14l31 51q3 -7 9.5 -16.5t17.5 -18.5t26.5 -15t36.5 -6q22 0 39.5 16t31 41.5t24.5 58t22 65.5l90 284q13 45 23 80.5t10 55.5q0 17 -10 27t-39 10h-22l5 15l157 12zM175 638q0 20 13 34
t32 14t32.5 -13.5t13.5 -32.5t-13 -32t-32 -13q-18 0 -32 12t-14 31z" />
    <glyph glyph-name="k" unicode="k" horiz-adv-x="500" 
d="M177 519q14 45 24.5 85t10.5 59q0 15 -6.5 22.5t-16.5 11t-22 4.5t-23 1l5 15l154 13l-230 -724h16q3 10 14.5 45.5t30 83.5t43.5 100.5t55.5 97t65 73.5t73.5 29q27 0 46 -20.5t19 -49.5q0 -40 -21.5 -65.5t-51 -41t-59 -22.5t-45.5 -10q6 -24 13.5 -57.5t18 -64
t24.5 -52.5t32 -22t41.5 15t48.5 38t50 50.5t46.5 53t36.5 45.5l21 28l-8 -25q-5 -7 -21.5 -28.5t-39 -49t-50 -58t-55 -56t-53.5 -42t-45 -16.5q-17 0 -32 16.5t-27.5 41.5t-23 55.5t-18.5 58.5t-13 50t-6 30l12 -2t13 -1q32 0 61 8t51.5 23t36 36t13.5 47q0 21 -10.5 36.5
t-34.5 15.5q-28 0 -56 -26t-53.5 -66t-48 -88.5t-39.5 -93t-28.5 -80t-15.5 -48.5l-92 -13z" />
    <glyph glyph-name="l" unicode="l" horiz-adv-x="259" 
d="M350 235q-5 -8 -21 -30t-39 -49.5t-51 -57.5t-58 -55.5t-60 -41.5t-56 -16q-20 0 -31 14.5t-11 35.5q0 13 6 32t11 36l131 416q14 45 24.5 85t10.5 59q0 15 -6.5 22.5t-16.5 11t-22 4.5t-23 1l5 15l154 13l-168 -534q-5 -15 -11 -35.5t-11.5 -40.5t-9.5 -37t-4 -26
q0 -27 20 -27q18 0 42 14.5t49 37.5t50 50.5t46.5 53t36.5 45.5t21 29z" />
    <glyph glyph-name="m" unicode="m" horiz-adv-x="778" 
d="M84 250q3 9 8 26t10 36t8.5 36.5t3.5 28.5q0 30 -48 30h-19l5 15l151 13l-133 -430h10q6 17 20.5 55.5t35.5 86t48 99t59 93.5t67.5 69t74.5 27q26 0 41.5 -17t15.5 -38q0 -25 -7 -48l-14 -46l-87 -281h12q5 15 19 53t34.5 85.5t48 99t59 94.5t67.5 70.5t74 27.5
q30 0 44.5 -18t14.5 -40q0 -23 -7.5 -46t-14.5 -46l-40 -128q-11 -32 -17 -62.5t-6 -41.5q0 -9 5.5 -16t14.5 -7q15 0 36.5 14t45 36.5t48 49.5t45.5 52.5t37.5 46.5t23.5 31l-8 -25q-7 -10 -24 -33t-40.5 -50.5t-51 -57t-56 -54t-56 -40t-51.5 -15.5q-17 0 -28 13.5
t-11 30.5q0 9 3 24.5t8 33t11 36t11 34.5l44 140q5 18 9 39t4 29q0 9 -6 22t-23 13q-27 0 -55 -25.5t-55 -65t-51 -87.5t-43.5 -92.5t-33 -79.5t-18.5 -50l-92 -15l84 265q9 31 18.5 64.5t9.5 49.5q0 11 -6 23.5t-25 12.5q-28 0 -56.5 -27t-55.5 -68t-51.5 -90.5
t-43.5 -93.5t-31 -77.5t-15 -43.5l-91 -15z" />
    <glyph glyph-name="n" unicode="n" 
d="M88 250q3 9 8 26t10 36t8.5 36.5t3.5 28.5q0 30 -48 30h-19l5 15l151 13l-133 -430h10q6 17 20.5 55.5t35.5 86t49 99t60.5 93.5t69.5 69t77 27q26 0 41.5 -17t15.5 -38q0 -25 -7 -48l-14 -46l-41 -129q-11 -32 -17 -62.5t-6 -41.5q0 -9 5.5 -16t14.5 -7q15 0 36.5 14
t46 36.5t49.5 49.5t47 52.5t38.5 46.5t23.5 31l-8 -25q-8 -10 -25 -33t-40.5 -50.5t-52 -57t-57.5 -54t-57 -40t-52 -15.5q-17 0 -28 13.5t-11 30.5q0 9 3 24.5t8 33t11 36t11 34.5l29 93q9 31 18.5 64.5t9.5 49.5q0 11 -6 23.5t-25 12.5q-28 0 -57 -27t-57 -68t-53 -90.5
t-45 -93.5t-32.5 -77.5t-15.5 -43.5l-91 -15z" />
    <glyph glyph-name="o" unicode="o" horiz-adv-x="463" 
d="M552 240q-6 -8 -20.5 -29t-36 -47.5t-49 -55.5t-58.5 -53t-64.5 -39.5t-66.5 -15.5q-15 0 -30 4t-28 9q-9 -5 -34.5 -16.5t-61.5 -11.5q-46 0 -69.5 29t-23.5 80q0 33 12 71t32.5 76t49.5 73t62.5 62t71 43t75.5 16q47 0 71.5 -27.5t24.5 -72.5q0 -50 -22 -99.5
t-52.5 -91.5t-62 -73t-50.5 -44q9 -3 18.5 -5t18.5 -2q33 0 66 14.5t63.5 38t57.5 51.5t49.5 55.5t39 50.5t25.5 35zM236 403q-24 -11 -53 -39t-54 -67t-42 -87t-17 -100q0 -39 17 -64.5t62 -25.5q8 0 16 1.5t16 3.5q-11 9 -20 19.5t-16.5 25t-11.5 34t-4 47.5q0 46 9 84.5
t24.5 69.5t35 53.5t40.5 37.5zM144 171q0 -56 17.5 -87t42.5 -48q13 10 36 35.5t45 62t38 81t16 92.5q0 38 -15.5 65.5t-47.5 27.5q-29 0 -53 -23.5t-41.5 -58t-27.5 -74.5t-10 -73z" />
    <glyph glyph-name="p" unicode="p" horiz-adv-x="481" 
d="M71 224q14 45 24.5 85t10.5 59q0 15 -6.5 22.5t-16.5 11t-22 4.5t-23 1l5 15l154 13l-209 -662h16q3 9 13 42.5t25.5 81.5t36 107t45 118.5t53 116t59 100t64 70t67.5 26.5q16 0 28.5 -8t20.5 -21.5t12 -31t4 -35.5q0 -35 -10.5 -75.5t-29.5 -79.5t-44 -75t-53.5 -63.5
t-60 -44t-61.5 -16.5q-19 0 -32 4t-21.5 9.5t-13.5 12t-8 11.5l40 33q1 -5 4.5 -13.5t10.5 -16.5t17.5 -14t25.5 -6q24 0 46 16.5t41 43.5t34.5 61t26.5 69.5t17 69t6 58.5q0 10 -1.5 21t-6 20t-11.5 15t-17 6q-31 0 -62 -32t-59.5 -78.5t-52.5 -99t-40 -93.5
q-7 -18 -17 -45.5t-20 -59t-20.5 -64.5t-19 -61.5t-15.5 -51t-10 -32.5l-92 -13z" />
    <glyph glyph-name="q" unicode="q" horiz-adv-x="481" 
d="M329 270q-4 -11 -14 -36t-26 -57t-37 -66t-47 -62t-56 -46t-63 -18q-40 0 -61 27.5t-21 74.5q0 33 13 72t34.5 77.5t50 74.5t60 63.5t64 44t62.5 16.5q15 0 26 -7.5t18.5 -19.5t11 -26.5t3.5 -29.5q0 -12 -2 -24t-5 -23h7l38 124l70 6q-3 -6 -9 -22.5t-12.5 -36
t-12.5 -39.5t-10 -32l-167 -541l-76 -9q14 34 34.5 94t49.5 150l84 271h-7zM69 109q0 -13 3 -26.5t9 -24t16 -17t24 -6.5q19 0 41.5 14t45 36.5t43 52t36.5 60t25.5 60.5t9.5 54q0 32 -17.5 57.5t-52.5 25.5q-36 0 -69 -31.5t-58.5 -76.5t-40.5 -94t-15 -84z" />
    <glyph glyph-name="r" unicode="r" horiz-adv-x="370" 
d="M80 250q3 9 8 26t10 36t8.5 36.5t3.5 28.5q0 30 -48 30h-19l5 15l151 13l-133 -430h12q3 9 15.5 44.5t33 83t48 101t60.5 98t70 74t77 29.5q11 0 27 -7l-39 -85q-6 13 -12.5 22.5t-29.5 9.5q-28 0 -56.5 -25.5t-54 -65t-48 -86t-39.5 -88t-27.5 -72.5t-12.5 -38l-92 -15z
" />
    <glyph glyph-name="s" unicode="s" horiz-adv-x="426" 
d="M518 240q-5 -8 -19.5 -28.5t-35.5 -46t-47 -53.5t-54.5 -50.5t-58.5 -37.5t-58 -15q-5 0 -10 0.5t-10 0.5q-19 -11 -40 -18t-43 -7q-27 0 -54 9.5t-48 27.5t-34 44.5t-13 61.5q0 32 10 55t25.5 39.5t33.5 27.5t33 18l54 -32q-21 -3 -41 -12t-35.5 -24t-25 -36.5
t-9.5 -48.5q0 -25 9 -46t24.5 -36.5t36.5 -24t44 -8.5q39 0 63.5 25t24.5 66q0 36 -12 68t-27 61q-14 29 -26.5 58t-12.5 58q0 19 7.5 36.5t22 31.5t34.5 22.5t45 8.5q19 0 33.5 -4.5t25.5 -10.5t19 -13t13 -12l-32 -55q-1 7 -4.5 20.5t-11.5 26.5t-21 23t-33 10
q-23 0 -35.5 -15.5t-12.5 -34.5q0 -25 13.5 -54.5t30.5 -62.5q17 -32 30.5 -66t13.5 -67q0 -30 -15 -51.5t-29 -33.5q4 0 7.5 -0.5t7.5 -0.5q22 0 47.5 15t52 38t52.5 51t47 53.5t36 45.5l21 28z" />
    <glyph glyph-name="t" unicode="t" horiz-adv-x="259" 
d="M150 282q-24 -97 -43 -151.5t-19 -71.5q0 -15 5.5 -22t25.5 -7q16 0 39.5 15.5t48.5 39t50.5 51.5t46.5 53.5t36 45t20 25.5q-8 -26 -34 -58.5t-57 -70.5q-22 -27 -46 -53t-47.5 -47t-46.5 -33.5t-43 -12.5q-31 0 -44.5 17t-13.5 49q0 12 4 32t9 37l89 289
q-21 0 -49 -1.5t-51 -4.5l16 26h89q4 11 11.5 41t14.5 75l78 21l-44 -137h167l-14 -26q-12 1 -32.5 2t-43.5 2t-45 1.5t-37 0.5z" />
    <glyph glyph-name="u" unicode="u" horiz-adv-x="519" 
d="M398 415l-2 2q-2 -9 -15 -44.5t-33.5 -83.5t-49 -101.5t-63 -98.5t-73.5 -74.5t-82 -29.5q-17 0 -28.5 6t-18.5 14.5t-9.5 18.5t-2.5 19q0 11 2.5 26t6 31t8 31t7.5 26l29 93q3 9 8 25t10 33.5t8.5 34t3.5 27.5q0 21 -11.5 29t-36.5 8h-19l5 15l151 13l-95 -309
q-5 -17 -11 -38.5t-6 -32.5q0 -10 8.5 -22.5t26.5 -12.5q31 0 63 27.5t61 69.5t54.5 92t45 95t31.5 77.5t14 40.5l80 13l-76 -239q-5 -16 -11.5 -36.5t-11.5 -40t-8.5 -35.5t-3.5 -23q0 -13 4 -22t16 -9q18 0 41 14.5t47.5 37t49 50t45.5 53t36 46t21 29.5l-8 -25
q-6 -8 -21.5 -30t-37.5 -49.5t-49 -57.5t-55 -55.5t-56.5 -41.5t-52.5 -16q-26 0 -38 18t-12 37q0 12 6.5 34.5t12.5 41.5z" />
    <glyph glyph-name="v" unicode="v" horiz-adv-x="481" 
d="M576 238q-10 -16 -31 -46t-50.5 -59.5t-65 -51.5t-73.5 -22q-40 0 -70 27q-6 -6 -23 -22.5t-41.5 -34t-54.5 -31t-62 -13.5q-49 0 -75.5 34t-26.5 84q0 56 19 105t42 86.5t42 63t19 34.5t-8.5 13.5t-18.5 4.5q-13 0 -23 -5l7 25l156 5q-14 -15 -41.5 -49t-55 -78t-48 -94
t-20.5 -98q0 -35 17 -60.5t56 -25.5q22 0 41.5 7.5t36 18.5t30 23l22.5 20q-4 6 -9.5 14t-11 21.5t-9.5 33t-4 46.5q0 29 9 67.5t26.5 72.5t42.5 57.5t58 23.5q29 0 42.5 -23.5t13.5 -51.5q0 -44 -18 -87t-41 -79.5t-46.5 -63t-33.5 -37.5q5 -6 19 -15t43 -9q38 0 74 23.5
t66 55.5t52.5 64.5t34.5 50.5zM257 209q0 -23 3 -39.5t7.5 -28.5t9 -19.5t8.5 -13.5q15 16 32 41t32 56t25 67t10 74q0 10 -1.5 21.5t-5 21t-9.5 15.5t-16 6q-15 0 -31.5 -19t-31 -48.5t-23.5 -65t-9 -68.5z" />
    <glyph glyph-name="w" unicode="w" horiz-adv-x="630" 
d="M726 238q-12 -16 -33 -45.5t-49.5 -59t-62.5 -51.5t-70 -22q-17 0 -35 6.5t-31 13.5q-5 -6 -18 -21.5t-31.5 -32t-42 -29t-48.5 -12.5q-24 0 -39 13.5t-23.5 33t-11.5 41.5t-3 38h-2q-6 -12 -19.5 -33.5t-32 -42t-41.5 -35.5t-47 -15q-40 0 -61.5 34t-21.5 84
q0 56 19 105t42 86.5t42 63t19 34.5t-8.5 13.5t-18.5 4.5q-13 0 -23 -5l7 25l156 5q-14 -15 -42.5 -49t-57 -78t-49.5 -94t-21 -98q0 -35 11 -60.5t38 -25.5q23 0 41.5 14.5t32.5 34.5t23 40t13 32q11 38 20 71.5t19 60.5t25 58.5t40 73.5l59 5q-11 -15 -27.5 -48t-32 -74
t-26.5 -85.5t-11 -83.5q0 -15 3 -31t9 -28.5t15.5 -21t23.5 -8.5q16 0 30 5.5t25.5 14t20.5 17.5t15 16q-5 6 -11 14.5t-12 22t-10 34t-4 50.5q0 29 9 67.5t26 72.5t41.5 57.5t56.5 23.5q53 0 53 -75q0 -35 -16 -77t-38 -80.5t-43.5 -69t-31.5 -41.5q5 -6 17.5 -11.5
t38.5 -5.5q36 1 70.5 24t64.5 53.5t53 61.5t35 49zM408 209q0 -26 4 -43.5t9.5 -30t11.5 -20t11 -13.5q14 16 30.5 42t31 58t24 69t9.5 75q0 10 -1.5 21.5t-5.5 21t-11 15.5t-19 6q-15 0 -31.5 -19t-30.5 -48.5t-23 -65t-9 -68.5z" />
    <glyph glyph-name="x" unicode="x" horiz-adv-x="500" 
d="M589 235q-6 -9 -22 -31t-38 -49.5t-48.5 -57.5t-54 -55t-53.5 -41t-48 -16q-32 0 -48.5 24.5t-24 58t-9 67t-3.5 51.5h-2q-5 -8 -15.5 -26t-25.5 -40.5t-34 -46.5t-40 -43.5t-44 -32t-46 -12.5q-27 0 -36.5 7.5t-13.5 15.5l50 45q0 -14 6.5 -23.5t21.5 -9.5t33 12.5
t36.5 32t36.5 43t33 45t25.5 39t14.5 25.5v67q0 11 0.5 22t0.5 22q0 17 -4 29.5t-16 12.5q-11 0 -30 -18t-38.5 -41.5t-36 -46t-23.5 -31.5l8 25q4 6 14 21.5t24 35.5t30.5 41t33 38.5t33 29t30.5 11.5q23 0 29 -19t6 -42q0 -34 -1 -67t-3 -65l2 -2q6 13 24.5 45t45.5 65.5
t60 59t68 25.5q21 0 35 -18l-41 -49q-3 8 -8 15t-18 7q-24 0 -51.5 -23t-51.5 -54t-42 -61.5t-24 -46.5q0 -14 1 -44t6.5 -60t17 -53t33.5 -23q18 0 41 14.5t47.5 37.5t49 50.5t45 53.5t36.5 47.5t24 31.5z" />
    <glyph glyph-name="y" unicode="y" 
d="M632 240q-16 -24 -48 -65t-72 -81.5t-84 -71t-83 -34.5q-8 -23 -23 -62.5t-45 -77.5t-80 -65.5t-127 -27.5q-72 0 -115 29t-43 74q0 26 12.5 48t32 40t43.5 32.5t46.5 24.5t40.5 16.5t26 9.5q-4 11 -8.5 31t-6.5 60l-8 179q-2 42 -6 64t-13 32t-23.5 12t-37.5 3l5 20
l126 5q3 -17 4 -34.5t2 -34.5l8 -179q1 -34 2.5 -62t5.5 -48t11 -31t19 -11q19 0 41 27t43 68t41 90t36 92.5t26 74.5t12 38l93 10l-130 -415q44 6 86.5 35.5t80 67t68 77t50.5 65.5zM402 417q-3 -10 -14.5 -46t-29 -84t-39.5 -101.5t-47 -98t-52.5 -73.5t-54.5 -29
q-22 0 -32.5 12.5t-14.5 20.5q-18 -7 -44 -19.5t-50 -31t-40.5 -42.5t-16.5 -54q0 -42 37 -69t95 -27q39 0 67.5 15.5t50 44.5t38 70.5t32.5 94.5l126 417h-11z" />
    <glyph glyph-name="z" unicode="z" horiz-adv-x="444" 
d="M58 49l338 328l-2 2q-6 -1 -24 -5t-41 -8t-48.5 -7t-46.5 -3q-25 0 -39.5 1.5t-28.5 11.5q-16 -30 -35 -63t-42 -66l8 25q23 43 38.5 82t27.5 92q10 -10 25 -21.5t47 -11.5q31 0 61.5 3t58 7.5t50 9.5t36.5 9l-16 -49l-291 -331h90q30 0 53.5 0.5t41.5 2.5t32.5 4.5
t27.5 7.5l-29 -73q-23 2 -45 2.5t-44 0.5h-227z" />
    <glyph glyph-name="braceleft" unicode="{" 
d="M455 -203q-38 1 -75.5 14.5t-67.5 36t-49 53t-19 66.5q0 27 3.5 50t8.5 46q5 26 10.5 50t5.5 44q0 23 -9 43.5t-24.5 36.5t-35.5 28t-41 19v24q21 7 41 18t35.5 27t24.5 36.5t9 45.5q0 20 -5.5 44t-10.5 50q-5 23 -8.5 46t-3.5 50q0 36 19 66.5t49 53t67.5 35.5t75.5 15
v-25q-28 -6 -48 -20t-33 -33t-19.5 -40.5t-6.5 -42.5q0 -20 2 -40.5t5 -44.5q2 -18 4.5 -41.5t2.5 -37.5q0 -42 -17 -71.5t-41.5 -49.5t-51 -32.5t-45.5 -20.5q19 -8 45.5 -21.5t51 -34t41.5 -49.5t17 -69q0 -14 -2.5 -37.5t-4.5 -41.5q-3 -24 -5 -44.5t-2 -40.5
q0 -21 6.5 -42.5t19.5 -40.5t33 -33t48 -20v-25z" />
    <glyph glyph-name="bar" unicode="|" horiz-adv-x="333" 
d="M142 750h50v-1000h-50v1000z" />
    <glyph glyph-name="braceright" unicode="}" 
d="M120 -178q28 6 48 20t33 33t19.5 40.5t6.5 42.5q0 20 -2 40.5t-5 44.5q-2 18 -4.5 41.5t-2.5 37.5q0 40 17 69t41.5 49.5t51 34t45.5 21.5q-19 8 -45.5 20.5t-51 32.5t-41.5 49.5t-17 71.5q0 14 2.5 37.5t4.5 41.5q3 24 5 44.5t2 40.5q0 21 -6.5 42.5t-19.5 40.5t-33 33
t-48 20v25q37 -2 75 -15t68 -35.5t49 -53t19 -66.5q0 -27 -3.5 -50t-8.5 -46q-5 -26 -10.5 -50t-5.5 -44q0 -25 9 -45.5t24.5 -36.5t35.5 -27t41 -18v-24q-21 -7 -41 -19t-35.5 -28t-24.5 -36.5t-9 -43.5q0 -20 5.5 -44t10.5 -50q5 -23 8.5 -46t3.5 -50q0 -36 -19 -66.5
t-49 -53t-68 -36t-75 -14.5v25z" />
    <glyph glyph-name="asciitilde" unicode="~" 
d="M0 147q1 15 7 38.5t20 46.5t38.5 39.5t63.5 16.5q31 0 61 -13.5t58 -27.5l61 -33q23 -13 51.5 -24t47.5 -11q25 0 39.5 7t23.5 19t14.5 28.5t10.5 36.5h32q0 -20 -7 -44t-22.5 -46t-40 -36.5t-58.5 -14.5q-32 0 -62.5 12t-57.5 28l-61 34q-23 12 -51.5 23.5t-47.5 11.5
q-26 0 -41 -7t-24 -19.5t-14 -29t-9 -35.5h-32z" />
    <glyph glyph-name="exclamdown" unicode="&#xa1;" horiz-adv-x="352" 
d="M267 550q-18 0 -31.5 13t-13.5 32q0 18 13.5 31.5t31.5 13.5t31.5 -13.5t13.5 -31.5q0 -19 -13.5 -32t-31.5 -13zM54 -15q1 22 10.5 57.5t23 78t30.5 89t33 90t30 81t23 61.5l38 21q-10 -27 -21 -62t-22 -73.5t-22.5 -77.5t-21.5 -75q-17 -59 -24 -105t-7 -63z" />
    <glyph glyph-name="cent" unicode="&#xa2;" 
d="M190 124q-21 2 -36.5 7.5t-26.5 17.5t-16.5 32.5t-5.5 52.5q0 41 19 87.5t48.5 86.5t66 68t72.5 33l33 106l33 10l-36 -116q35 -3 53.5 -12t30.5 -26l-28 -46q-10 26 -22 38.5t-42 20.5l-104 -329q3 -1 9 -1.5t8 -0.5q19 0 38.5 6.5t36 15.5t29 18t17.5 14l11 -13
q-38 -30 -72 -47.5t-86 -22.5l-41 -129l-33 -10zM303 484q-31 -3 -55.5 -28t-42 -60.5t-26.5 -75t-9 -71.5q0 -24 2.5 -38.5t7 -23.5t10.5 -13.5t13 -7.5z" />
    <glyph glyph-name="sterling" unicode="&#xa3;" 
d="M41 47q33 1 57.5 17.5t42 42t28.5 56.5t18 61t10.5 55t4.5 38h-24q-16 0 -32.5 -1t-28.5 -3l13 43q15 -2 30 -3t31 -1h14q1 5 2.5 26.5t6.5 52t16 64.5t30.5 63t49.5 48t74 19q33 0 53.5 -8t32.5 -19t17.5 -22t7.5 -18l-55 -41v15q0 11 -3 24t-10.5 24t-19.5 18t-31 7
q-56 0 -81 -56t-25 -151q0 -13 -2 -26.5t-3 -19.5h26q25 0 49.5 0.5t48.5 3.5l-13 -43q-23 2 -46.5 3t-46.5 1h-21q-3 -35 -10.5 -71t-25 -71t-48 -67.5t-79.5 -60.5l-1 -5q5 0 12 1t13 1q56 0 98 -4.5t68 -4.5q30 0 60 7.5t56 25.5l-65 -73q-8 0 -27 1t-42 1.5t-45.5 1.5
t-35.5 1h-39q-25 0 -61 -1.5t-78 -3.5z" />
    <glyph glyph-name="fraction" unicode="&#x2044;" horiz-adv-x="250" 
d="M-124 -15q41 83 99 168.5t124 168t135.5 160t132.5 143.5l17 -15q-40 -37 -83 -84t-85.5 -99.5t-83 -108.5t-75 -111.5t-61.5 -107.5t-43 -97z" />
    <glyph glyph-name="fraction" unicode="&#x2215;" horiz-adv-x="250" 
d="M-124 -15q41 83 99 168.5t124 168t135.5 160t132.5 143.5l17 -15q-40 -37 -83 -84t-85.5 -99.5t-83 -108.5t-75 -111.5t-61.5 -107.5t-43 -97z" />
    <glyph glyph-name="yen" unicode="&#xa5;" 
d="M411 245q-12 -44 -27.5 -93.5t-34.5 -98t-43.5 -93t-56 -78.5t-70.5 -54.5t-88 -20.5q-35 0 -59.5 9t-40.5 21t-24.5 24t-11.5 19l62 44v-15q0 -15 6 -30.5t18 -28t29 -20.5t39 -8q37 0 68.5 23.5t57 61t45.5 83.5t35 90.5t25.5 82.5t16.5 60l-2 2q-7 -16 -18.5 -40.5
t-28 -47.5t-38.5 -39.5t-49 -16.5q-24 0 -37.5 13.5t-21 36.5t-10 52.5t-3.5 61.5h-137l15 30h120l-3 64h-132l15 30h116l-1 21q-3 59 -5.5 100t-9.5 66.5t-19.5 37t-36.5 11.5h-17l6 20l115 5q3 -8 5.5 -30.5t5 -54t4.5 -67.5t4 -71l1 -38h202q10 35 20.5 71.5t19.5 70
t16 63.5t10 51h56l-73 -256h120l-19 -30h-110l-18 -64h147l-19 -30h-136zM200 275h160q6 17 12 32.5t12 31.5h-187zM202 226q1 -20 2.5 -37.5t5.5 -30t11 -20t20 -7.5q21 0 38.5 15.5t31.5 35.5t23 38.5t12 24.5h-145z" />
    <glyph glyph-name="florin" unicode="&#x192;" 
d="M234 121q-19 -59 -40 -104.5t-48.5 -76t-62.5 -46.5t-82 -16q-45 0 -84 22l43 36q3 -6 8 -13.5t13 -14t19 -11t27 -4.5q24 0 42 9t33 28.5t28 50t27 73.5l82 262h-25q-15 0 -31 -2t-25 -2l12 43q9 -2 24 -3t31 -1h25l7 22q17 54 37 100.5t47 80t62 52.5t82 19
q37 0 57.5 -7.5t34.5 -14.5l-41 -37q-4 6 -9.5 14t-13.5 14.5t-19.5 11t-27.5 4.5q-27 0 -46.5 -13t-35 -37.5t-28.5 -59t-27 -77.5l-23 -72h22q20 0 42 1t34 3l-13 -43q-17 2 -33.5 3t-33.5 1h-29z" />
    <glyph glyph-name="section" unicode="&#xa7;" 
d="M327 228q-2 -54 -6.5 -103t-17.5 -86.5t-35 -59.5t-58 -22q-3 0 -6.5 0.5t-7.5 0.5l-10.5 -21t-18 -25t-28.5 -20.5t-41 -8.5q-32 0 -50.5 18t-18.5 44l43 22q-1 -5 -2 -8.5t-1 -8.5q0 -24 14 -35.5t34 -11.5q19 0 31 14t18.5 36.5t9 51t3.5 57.5l7 205q1 48 5 100.5
t16 96.5t36 72.5t66 28.5q2 0 5 -0.5t6 -0.5q4 9 10 22t17.5 25t28.5 20.5t42 8.5q38 0 53 -19t15 -43l-42 -25q1 5 1.5 9t0.5 8q0 26 -12.5 38t-35.5 12q-18 0 -29.5 -11t-18.5 -30t-10 -44t-4 -52zM225 182q-3 -87 -10.5 -141t-12.5 -68q2 0 5 -0.5t6 -0.5q24 0 37.5 16.5
t20.5 41.5t9 55.5t3 57.5l7 217q3 73 10.5 122t13.5 68q-43 -5 -61 -38.5t-20 -104.5z" />
    <glyph glyph-name="currency" unicode="&#xa4;" 
d="M33 148l67 67q-25 27 -36 63.5t-11 72.5q0 37 12.5 73t35.5 65l-70 70l32 31l69 -68q29 21 64.5 33.5t72.5 12.5q36 0 71.5 -12.5t64.5 -33.5l69 68l32 -31l-70 -70q26 -27 37 -64t11 -74q0 -36 -11.5 -72.5t-35.5 -63.5l67 -67l-30 -30l-66 66q-33 -25 -67.5 -36
t-71.5 -11q-38 0 -75 12.5t-65 34.5l-66 -66zM94 351q0 -36 14 -67.5t37.5 -55t55.5 -37t68 -13.5t67.5 13.5t55 37t37.5 55t14 67.5t-13.5 68t-37.5 56t-55.5 38t-67.5 14t-68 -14t-56 -38t-37.5 -56t-13.5 -68z" />
    <glyph glyph-name="quotesingle" unicode="'" horiz-adv-x="278" 
d="M182 625h70l-22 -186h-25z" />
    <glyph glyph-name="quotedblleft" unicode="&#x201c;" horiz-adv-x="426" 
d="M444 625q-16 -3 -32 -11.5t-28.5 -19.5t-20.5 -25t-8 -28q0 -8 4.5 -14t10 -12.5t10 -14t4.5 -17.5q0 -17 -12 -30t-34 -13q-18 0 -30 13t-12 34q0 33 16.5 60t40 47t48 32t40.5 14zM301 625q-16 -3 -32 -11.5t-28.5 -19.5t-20.5 -25t-8 -28q0 -8 4.5 -14t10 -12.5
t10 -14t4.5 -17.5q0 -17 -12 -30t-34 -13q-18 0 -30 13t-12 34q0 33 16.5 60t40 47t48 32t40.5 14z" />
    <glyph glyph-name="guillemotleft" unicode="&#xab;" 
d="M109 215l219 150l12 -15l-161 -135l73 -144l-11 -8zM247 215l218 150l12 -15l-160 -135l72 -144l-11 -8z" />
    <glyph glyph-name="guilsinglleft" unicode="&#x2039;" horiz-adv-x="333" 
d="M62 215l219 150l12 -15l-161 -135l73 -144l-11 -8z" />
    <glyph glyph-name="guilsinglright" unicode="&#x203a;" horiz-adv-x="333" 
d="M14 77l160 135l-72 144l11 9l131 -153l-218 -149z" />
    <glyph glyph-name="fi" unicode="&#xfb01;" horiz-adv-x="519" 
d="M79 6q-38 -123 -95.5 -187t-144.5 -64q-41 0 -81 19l25 81q2 -11 6 -25.5t13 -27.5t24 -22.5t38 -9.5q27 0 48 15t38.5 43.5t32.5 68.5t31 91l132 421h-12q-23 0 -46 -2t-46 -5l23 27h87l19 59q37 118 98.5 180t152.5 62q16 0 37 -5t39 -15t30.5 -25.5t12.5 -36.5
q0 -5 -0.5 -8.5t-1.5 -9.5l-72 -26q10 12 14.5 27t4.5 29q0 23 -19.5 39t-48.5 16q-30 0 -56 -14t-47.5 -37t-38 -54t-27.5 -65l-37 -116h93q79 0 160 6l-76 -239q-5 -16 -11.5 -36.5t-11.5 -40t-8.5 -35.5t-3.5 -23q0 -13 4 -22t16 -9q18 0 41 14.5t47.5 37t49 50t45.5 53
t36 46t21 29.5l-8 -25q-6 -8 -21.5 -30t-37.5 -49.5t-49 -57.5t-55 -55.5t-56.5 -41.5t-52.5 -16q-26 0 -38 18t-12 37q0 12 6.5 34.5t12.5 41.5l38 119q13 45 23 80.5t10 55.5q0 16 -10 27t-39 11h-119z" />
    <glyph glyph-name="fl" unicode="&#xfb02;" horiz-adv-x="500" 
d="M68 6q-38 -123 -95.5 -187t-144.5 -64q-41 0 -81 19l25 81q2 -11 6 -25.5t13 -27.5t24 -22.5t38 -9.5q27 0 48 15t38.5 43.5t32.5 68.5t31 91l132 421h-12q-23 0 -46 -2t-46 -5l23 27h88l19 59q33 112 89.5 166.5t142.5 62.5l154 13l-168 -534q-5 -15 -11 -35.5
t-11.5 -40.5t-9.5 -37t-4 -26q0 -26 20 -26q18 0 42 14.5t49 37t50 50t46.5 53t36.5 45.5t21 29l-8 -25q-5 -8 -21 -30t-39 -49.5t-51 -57.5t-58 -55.5t-60 -41.5t-56 -16q-20 0 -31 14.5t-11 35.5q0 13 6 32t11 36l96 306h-191zM201 429h191l29 90q14 45 24.5 85t10.5 59
q0 13 -6.5 21t-16.5 12t-22 5t-23 1q-28 0 -51.5 -12.5t-42.5 -34.5t-33 -50.5t-23 -59.5z" />
    <glyph glyph-name="endash" unicode="&#x2013;" 
d="M57 259h342q43 0 71 4t47 8l-38 -57h-330q-26 0 -44.5 -1t-33 -2.5t-26.5 -3.5t-25 -5z" />
    <glyph glyph-name="dagger" unicode="&#x2020;" 
d="M276 396h-39l-99 -3l12 37q10 0 19 -0.5t19 -1.5t19.5 -1.5t19.5 -0.5h59l23 76q8 26 17 54.5t18 63.5l58 20q-2 -4 -7 -17t-12 -31.5t-15 -40.5t-15 -45l-24 -80h51q23 0 45 1t45 3l-12 -37q-7 1 -34.5 2t-61.5 1h-42l-73 -243q-8 -24 -18 -61t-20.5 -74.5t-19 -69.5
t-11.5 -46l-66 -20z" />
    <glyph glyph-name="daggerdbl" unicode="&#x2021;" 
d="M181 96h-37l-99 -3l12 37q19 -1 38 -2.5t39 -1.5h56l87 270h-39l-99 -3l12 37q10 0 19 -0.5t19 -1.5t19.5 -1.5t19.5 -0.5h59l23 76q8 26 17 54.5t18 63.5l58 20q-8 -18 -14.5 -32.5t-11.5 -29.5t-10.5 -32t-12.5 -40l-24 -80h51q23 0 45 1t45 3l-12 -37q-7 1 -34.5 2
t-61.5 1h-42l-82 -270h48q23 0 45 1t45 3l-12 -37q-7 1 -34.5 2t-61.5 1h-39q-8 -27 -16 -56t-15 -56t-12.5 -49t-7.5 -33l-66 -20z" />
    <glyph glyph-name="periodcentered" unicode="&#xb7;" 
d="M259 168q-18 0 -32 13t-14 33t14 33t32 13q20 0 33 -13t13 -33t-13 -33t-33 -13z" />
    <glyph glyph-name="periodcentered" unicode="&#x2219;" 
d="M259 168q-18 0 -32 13t-14 33t14 33t32 13q20 0 33 -13t13 -33t-13 -33t-33 -13z" />
    <glyph glyph-name="paragraph" unicode="&#xb6;" 
d="M326 263q-32 4 -70 17t-72 39.5t-56.5 68t-22.5 102.5q0 65 27 111t70 74.5t96 41.5t106 13h115v-37h-58v-867h-37v867h-61v-867h-37v437z" />
    <glyph glyph-name="bullet" unicode="&#x2022;" horiz-adv-x="500" 
d="M250 180q-38 0 -70.5 14t-57.5 39t-39 57.5t-14 70.5q0 37 14 70t39 57.5t57.5 39t70.5 14.5q37 0 70 -14.5t57.5 -39t39 -57.5t14.5 -70q0 -38 -14.5 -70.5t-39 -57.5t-57.5 -39t-70 -14z" />
    <glyph glyph-name="quotesinglbase" unicode="&#x201a;" horiz-adv-x="278" 
d="M25 -104q16 3 31.5 11.5t28.5 19.5t21 25t8 28q0 7 -4.5 13.5t-10 13t-10 14t-4.5 17.5q0 17 12 30t34 13q18 0 30 -13t12 -34q0 -33 -17 -60t-40 -47t-47.5 -32t-40.5 -14z" />
    <glyph glyph-name="quotedblbase" unicode="&#x201e;" horiz-adv-x="426" 
d="M1 -104q16 3 31.5 11.5t28.5 19.5t21 25t8 28q0 7 -4.5 13.5t-10 13t-10 14t-4.5 17.5q0 17 12 30t34 13q18 0 30 -13t12 -34q0 -33 -17 -60t-40 -47t-47.5 -32t-40.5 -14zM144 -104q16 3 31.5 11.5t28.5 19.5t21 25t8 28q0 7 -4.5 13.5t-10 13t-10 14t-4.5 17.5
q0 17 12 30t34 13q18 0 30 -13t12 -34q0 -33 -17 -60t-40 -47t-47.5 -32t-40.5 -14z" />
    <glyph glyph-name="quotedblright" unicode="&#x201d;" horiz-adv-x="426" 
d="M129 455q16 3 31.5 11.5t28.5 19.5t21 25t8 28q0 7 -4.5 13.5t-10 13t-10 14t-4.5 17.5q0 17 12 30t34 13q18 0 30 -13t12 -34q0 -33 -17 -60t-40 -47t-47.5 -32t-40.5 -14zM272 455q16 3 31.5 11.5t28.5 19.5t21 25t8 28q0 7 -4.5 13.5t-10 13t-10 14t-4.5 17.5
q0 17 12 30t34 13q18 0 30 -13t12 -34q0 -33 -17 -60t-40 -47t-47.5 -32t-40.5 -14z" />
    <glyph glyph-name="guillemotright" unicode="&#xbb;" 
d="M49 78l160 135l-72 144l11 8l131 -152l-218 -150zM186 78l161 135l-73 144l11 8l132 -152l-219 -150z" />
    <glyph glyph-name="ellipsis" unicode="&#x2026;" horiz-adv-x="1000" 
d="M167 -15q-18 0 -31.5 13.5t-13.5 31.5q0 19 13.5 32t31.5 13q19 0 32 -13.5t13 -31.5t-13 -31.5t-32 -13.5zM500 -15q-18 0 -31.5 13.5t-13.5 31.5q0 19 13.5 32t31.5 13q19 0 32 -13.5t13 -31.5t-13 -31.5t-32 -13.5zM833 -15q-18 0 -31.5 13.5t-13.5 31.5q0 19 13.5 32
t31.5 13q19 0 32 -13.5t13 -31.5t-13 -31.5t-32 -13.5z" />
    <glyph glyph-name="perthousand" unicode="&#x2030;" horiz-adv-x="1093" 
d="M151 -15q38 79 92 159t116 157.5t127 149.5t125 134l-2 2q-23 -14 -51.5 -32.5t-60.5 -34.5t-65.5 -27t-64.5 -11q-6 0 -11.5 0.5t-11.5 1.5q0 -32 -12 -72.5t-35 -76.5t-56.5 -61t-76.5 -25q-26 0 -45.5 10.5t-33 28.5t-20.5 42t-7 50q0 38 14.5 79t39 74.5t57.5 55
t70 21.5q31 0 50.5 -12.5t31 -29t16 -32t6.5 -22.5q9 -2 18 -4.5t18 -2.5q37 0 74.5 11.5t71.5 29t64 38t53 39.5l17 -15q-40 -37 -83 -84t-85.5 -99.5t-83 -108.5t-75 -111.5t-61.5 -107.5t-43 -97zM98 367q0 -18 3.5 -36.5t12 -33t22 -24t34.5 -9.5q25 0 48.5 21.5t42 55
t29.5 73.5t11 76q0 18 -3 36.5t-11 33.5t-21 25t-32 10q-24 0 -48.5 -20.5t-44 -53t-31.5 -73t-12 -81.5zM506 0q-41 0 -70.5 31t-29.5 88q0 43 15 85t40 76t58 55t69 21q45 0 75 -32t30 -85q0 -43 -15 -86t-40.5 -77t-59.5 -55t-72 -21zM446 111q0 -39 17 -67.5t54 -28.5
q27 0 51.5 21t43.5 54t30 74t11 81t-16.5 68t-54.5 28q-28 0 -52.5 -21t-43 -54.5t-29.5 -74.5t-11 -80zM846 0q-41 0 -70.5 31t-29.5 88q0 43 15 85t40 76t58 55t69 21q45 0 75 -32t30 -85q0 -43 -15 -86t-40.5 -77t-59.5 -55t-72 -21zM786 111q0 -39 17 -67.5t54 -28.5
q27 0 51.5 21t43.5 54t30 74t11 81t-16.5 68t-54.5 28q-28 0 -52.5 -21t-43 -54.5t-29.5 -74.5t-11 -80z" />
    <glyph glyph-name="questiondown" unicode="&#xbf;" horiz-adv-x="426" 
d="M278 14q-12 -7 -38.5 -18t-68.5 -11q-37 0 -62 10t-40.5 26t-22.5 36t-7 41q0 37 18.5 63.5t46.5 48t60 40.5t60 41t46.5 49t18.5 64q0 19 -5.5 37.5t-15.5 35.5l55 15q6 -20 6 -42q0 -47 -17 -82t-42.5 -63t-55.5 -51t-55.5 -47t-42.5 -51.5t-17 -63.5q0 -39 24 -63
t62 -24q29 0 51.5 11t32.5 16zM340 550q-18 0 -31.5 13.5t-13.5 31.5q0 19 13.5 32t31.5 13t31.5 -13t13.5 -32q0 -18 -13.5 -31.5t-31.5 -13.5z" />
    <glyph glyph-name="grave" unicode="`" horiz-adv-x="250" 
d="M120 622l42 64l80 -126l-11 -14z" />
    <glyph glyph-name="acute" unicode="&#xb4;" horiz-adv-x="250" 
d="M167 560l170 124l15 -61l-175 -77z" />
    <glyph glyph-name="circumflex" unicode="&#x2c6;" horiz-adv-x="250" 
d="M89 558l165 129l55 -132l-14 -9l-62 75l-135 -75z" />
    <glyph glyph-name="tilde" unicode="&#x2dc;" horiz-adv-x="250" 
d="M83 553q4 9 11.5 20t18 21t24 17t30.5 7q16 0 28 -5.5t23 -12.5q11 -8 22 -13.5t25 -5.5q10 0 18.5 4.5t15 10.5t11.5 12.5t8 10.5l13 -8q-3 -7 -9.5 -18t-16 -21.5t-23 -18t-30.5 -7.5q-13 0 -25 5.5t-24 13.5q-12 7 -24 12.5t-26 5.5q-24 0 -36.5 -12.5t-22.5 -24.5z
" />
    <glyph glyph-name="macron" unicode="&#xaf;" horiz-adv-x="250" 
d="M103 586h193l-12 -40h-194z" />
    <glyph glyph-name="macron" unicode="&#x2c9;" horiz-adv-x="250" 
d="M103 586h193l-12 -40h-194z" />
    <glyph glyph-name="breve" unicode="&#x2d8;" horiz-adv-x="250" 
d="M296 684q-3 -13 -13 -36t-27 -45.5t-41 -39.5t-55 -17q-20 0 -34 8t-22.5 21.5t-12 31.5t-3.5 38q0 22 4 39h17q-1 -6 -1 -10.5v-9.5q0 -14 2.5 -28t9.5 -25t18.5 -18t29.5 -7q27 0 46.5 11.5t33 27.5t21.5 32.5t12 26.5h15z" />
    <glyph glyph-name="dotaccent" unicode="&#x2d9;" horiz-adv-x="250" 
d="M206 546q-20 0 -33 14t-13 32q0 20 13.5 33t32.5 13t32.5 -13.5t13.5 -32.5t-14 -32.5t-32 -13.5z" />
    <glyph glyph-name="dieresis" unicode="&#xa8;" horiz-adv-x="250" 
d="M130 546q-14 0 -25 10t-11 26q0 14 11 25t25 11q15 0 25.5 -9.5t10.5 -26.5q0 -15 -10.5 -25.5t-25.5 -10.5zM273 546q-15 0 -25.5 10.5t-10.5 25.5q0 14 10.5 25t25.5 11t25.5 -9.5t10.5 -26.5q0 -15 -10.5 -25.5t-25.5 -10.5z" />
    <glyph glyph-name="ring" unicode="&#x2da;" horiz-adv-x="250" 
d="M177 531q-30 0 -51 14t-21 45q0 19 7.5 39.5t22.5 37t36.5 27t50.5 10.5q34 0 56 -14t22 -46q0 -21 -9 -41.5t-25 -36.5t-38.5 -25.5t-50.5 -9.5zM140 590q0 -27 12 -38t29 -11q21 0 37 10t26.5 26t15.5 35t5 36q0 25 -12.5 35.5t-32.5 10.5q-19 0 -34 -10t-25 -25.5
t-15.5 -34t-5.5 -34.5z" />
    <glyph glyph-name="cedilla" unicode="&#xb8;" horiz-adv-x="250" 
d="M101 -32q9 -6 22 -18t13 -32q0 -25 -22 -37.5t-46 -12.5q-9 0 -18 1t-18 3l4 12q3 0 6 -0.5t6 -0.5q7 0 15.5 1t15.5 4.5t12 10t5 16.5q0 17 -12.5 24t-21.5 11l33 40h23z" />
    <glyph glyph-name="hungarumlaut" unicode="&#x2dd;" horiz-adv-x="250" 
d="M173 684h46l-69 -138h-20zM264 684h46l-69 -138h-20z" />
    <glyph glyph-name="ogonek" unicode="&#x2db;" horiz-adv-x="250" 
d="M192 -105q-11 -7 -24 -14t-33 -7q-23 0 -39.5 11.5t-16.5 33.5q0 16 7.5 30t18.5 26t23 21l20 15l31 13q-12 -12 -23.5 -22t-21 -20t-15 -22t-5.5 -28q0 -19 11.5 -28.5t28.5 -9.5q8 0 15.5 3t15.5 8z" />
    <glyph glyph-name="caron" unicode="&#x2c7;" horiz-adv-x="250" 
d="M126 675l15 9l61 -76l135 76l9 -13l-164 -128z" />
    <glyph glyph-name="emdash" unicode="&#x2014;" horiz-adv-x="1000" 
d="M52 259h767q42 0 70.5 4t47.5 8l-38 -57h-755q-26 0 -44.5 -1t-33 -2.5t-26.5 -3.5t-25 -5z" />
    <glyph glyph-name="AE" unicode="&#xc6;" horiz-adv-x="926" 
d="M376 249q-6 -12 -18 -36.5t-29.5 -54t-41 -60t-53 -56t-65 -41.5t-77.5 -16q-34 0 -60 9.5t-44 25.5t-27 36.5t-9 42.5q0 42 24.5 71.5t62.5 48t85 29t91.5 15t82 5.5t57.5 1q28 49 59 97.5t68.5 95t82.5 89.5t102 81q66 -9 132.5 -11t135.5 -2q29 0 49.5 1.5t35.5 4
t24.5 5.5t17.5 5q-5 -6 -13 -15t-16.5 -19t-16 -19t-11.5 -13h-10q-69 0 -124.5 8t-109.5 15q-11 -21 -24 -51t-25 -63t-23 -65t-19 -57h162l-34 -35q-21 9 -38.5 12t-46.5 3h-50q-1 -5 -6.5 -24.5t-11.5 -48.5t-10.5 -65.5t-4.5 -75.5q0 -14 1.5 -28.5t3.5 -28.5
q11 -5 41 -15t79 -10q29 0 60 4.5t59 14.5l-55 -58q-29 -6 -58 -6q-65 0 -103.5 12.5t-55.5 22.5q0 11 -1 19.5t-1 19.5q0 47 9 101t23.5 108.5t31.5 106t33 94t29 73t19 43.5h-31q0 -1 -7 -17t-18.5 -43.5t-25.5 -65.5t-28 -82q-24 -74 -39 -131t-25 -100t-14.5 -73.5
t-7.5 -52.5q9 -8 18.5 -15t19.5 -15l-115 -10q2 24 9 58t16 70t19.5 70.5t19.5 60.5h-160zM2 109q0 -23 11 -41.5t28 -31.5t39 -19.5t44 -6.5q48 0 84 29.5t63 69.5t45 79.5t30 60.5q-17 0 -49 -1t-70 -5t-78 -12t-72.5 -23.5t-53.5 -39.5t-21 -59zM544 269q4 12 13.5 38.5
t21.5 59.5t25.5 70t26 71t23 61t16.5 41l-2 2q-51 -38 -91.5 -77.5t-73.5 -82t-61 -88t-53 -95.5h155z" />
    <glyph glyph-name="ordfeminine" unicode="&#xaa;" 
d="M335 507q-3 -12 -18.5 -45t-41 -67.5t-59.5 -61.5t-74 -27q-28 0 -45 19.5t-17 49.5q0 34 21.5 77t54 81.5t71 65t73.5 26.5q49 0 49 -56q0 -10 -1.5 -19.5t-3.5 -18.5l5 -1l30 88l61 7q-3 -5 -12.5 -28.5t-20.5 -58.5l-25 -72q-5 -14 -10.5 -31t-10.5 -33.5t-8 -30.5
t-3 -21q0 -10 14 -10q22 0 52 22t59.5 50.5t52.5 55t31 35.5l-4 -18q-6 -7 -19.5 -23t-31.5 -36t-40.5 -41.5t-45.5 -39t-46.5 -28.5t-44.5 -11t-29 10.5t-8 23.5t4 27t8 27l38 111zM135 391q0 -18 7 -34t28 -16q23 0 49.5 21t49 51t37.5 64.5t15 61.5q0 26 -11.5 43.5
t-34.5 17.5q-30 0 -55.5 -24t-44 -57.5t-29.5 -69t-11 -58.5z" />
    <glyph glyph-name="Lslash" unicode="&#x141;" horiz-adv-x="500" 
d="M70 59q-19 8 -37 15.5t-38 7.5q-14 0 -25.5 -8t-11.5 -22q0 -25 27.5 -38.5t65.5 -13.5q36 0 57.5 9t38.5 19zM441 -11q-14 -2 -28.5 -3t-29.5 -1q-46 0 -82 4.5t-63 10.5t-45 12.5t-28 9.5q-15 -10 -41 -23.5t-73 -13.5q-50 0 -79 18.5t-29 48.5q0 26 20.5 40.5
t45.5 14.5q19 0 45.5 -7t51.5 -15.5t45.5 -17t27.5 -11.5q25 34 41 82.5t28 105t24 118.5t29 123q5 17 11.5 32t12.5 26q7 12 15 23l48 18q-43 -43 -63 -98t-33 -122l90 37l-8 -26l-87 -34l-10 -48t-10 -50q-6 -31 -13.5 -61.5t-16.5 -56.5t-19 -45t-22 -28q14 -4 50 -13
t84 -9q60 0 96.5 14t60.5 27zM115 103q20 39 35.5 92t26.5 108l-79 -31l8 25l75 30q11 45 18.5 90t18.5 74q20 68 69 108.5t119 40.5q26 0 45 -6t31.5 -15t20.5 -18t12 -15l-58 -62v16q0 36 -19 60.5t-57 24.5q-30 0 -51.5 -20t-37 -53t-25.5 -74.5t-18 -84t-14.5 -82.5
t-13.5 -69q-7 -26 -14.5 -57t-23.5 -69z" />
    <glyph glyph-name="Oslash" unicode="&#xd8;" horiz-adv-x="685" 
d="M254 -15q-60 0 -104 21.5t-70 63.5l-38 -34q-14 -13 -26 -25.5t-26 -25.5h-50q14 10 36.5 29t54.5 48l36 32q-20 41 -20 102q0 49 13.5 100.5t38 101t59 93.5t77 77t91 52.5t101.5 19.5q62 0 108.5 -22.5t72.5 -64.5l14 11q21 17 39.5 37t38.5 39h51q-8 -6 -31.5 -25.5
t-56.5 -49.5l-41 -37q6 -20 10.5 -43.5t4.5 -49.5q0 -77 -30.5 -156.5t-82.5 -145t-121.5 -107t-148.5 -41.5zM311 87q-27 0 -50 13t-39.5 35.5t-25.5 53t-9 66.5q0 38 12 91t37.5 106t66.5 98.5t98 69.5l-2 5q-48 -4 -96.5 -42t-87.5 -98t-63.5 -136t-24.5 -155
q0 -39 8 -74.5t25 -62t42.5 -42t60.5 -15.5q58 0 112.5 37t95.5 98t66 137.5t25 156.5q0 37 -8 71.5t-23 61t-37.5 42.5t-51.5 16q-39 0 -78.5 -30t-71.5 -78t-52.5 -108.5t-20.5 -121.5q0 -27 5 -54.5t16 -50t29 -36.5t44 -14q15 0 29 7.5t27 16.5l-58 -64v0z" />
    <glyph glyph-name="OE" unicode="&#x152;" horiz-adv-x="796" 
d="M353 -10q0 12 3 26q-54 -31 -112 -31q-94 0 -150.5 55t-56.5 156q0 49 13.5 100.5t38 101t59 93.5t77 77t91 52.5t101.5 19.5q43 0 79 -15q78 -3 157.5 -4.5t168.5 -1.5q29 0 49.5 1.5t35.5 4t24.5 5.5t17.5 5q-5 -6 -13 -15t-16.5 -19t-16 -19t-11.5 -13h-10
q-66 0 -123 8t-109 15q-11 -21 -24 -51t-25 -63t-23 -65t-19 -57h167l-34 -35q-21 9 -38.5 12t-46.5 3h-54q-1 -5 -6.5 -24.5t-11.5 -48.5t-11 -65.5t-5 -75.5q0 -14 1.5 -28.5t3.5 -28.5q11 -5 42 -15t86 -10q29 0 58.5 4.5t57.5 14.5l-55 -58q-29 -6 -58 -6
q-69 0 -108 12.5t-56 22.5q0 11 -1 19.5t-1 19.5q0 47 9 101t23.5 108.5t31.5 106t33 94t29 73t19 43.5q-9 2 -19 3t-19 2q-20 -55 -45 -125t-49 -145.5t-43.5 -152.5t-26.5 -145q10 -11 17 -16t24 -16zM117 194q0 -39 8 -74.5t25 -62t42.5 -42t60.5 -15.5q28 0 58.5 17
t56.5 52q13 58 33.5 127.5t43.5 137.5t45 127.5t38 98.5q-32 37 -61 51t-64 14q-56 0 -107.5 -37.5t-91 -98.5t-63.5 -138.5t-24 -156.5z" />
    <glyph glyph-name="ordmasculine" unicode="&#xba;" 
d="M536 485q-7 -9 -29 -37t-53.5 -58t-69.5 -53.5t-75 -23.5q-14 0 -26.5 3t-24.5 8q-6 -3 -25.5 -10.5t-48.5 -7.5q-35 0 -53.5 20t-18.5 54q0 36 20.5 78.5t53.5 79.5t75.5 62t87.5 25q35 0 55 -19t20 -54q0 -36 -17 -71t-41 -64t-48.5 -51t-39.5 -31q14 -7 32 -7
q37 0 74 22.5t68.5 51.5t54.5 58t34 43zM288 602q-18 -8 -40 -28t-41 -48t-32 -62.5t-13 -72.5q0 -29 13 -47t45 -18q14 0 24 6q-20 13 -33 31t-13 57q0 31 8.5 59t22 51t29.5 40t32 27zM218 435q0 -35 15 -58.5t32 -34.5q10 7 26.5 25t32.5 43.5t28 56.5t12 66q0 29 -11 48
t-33 19q-21 0 -39.5 -17.5t-32.5 -42.5t-22 -54t-8 -51z" />
    <glyph glyph-name="ae" unicode="&#xe6;" horiz-adv-x="611" 
d="M703 235q-12 -16 -30 -40.5t-42 -52.5t-54 -56t-65 -50.5t-75.5 -36.5t-84.5 -14q-60 0 -88 28t-32 76h-2q-4 -7 -16 -24t-30.5 -35t-43.5 -31.5t-55 -13.5q-22 0 -38 8.5t-26.5 21.5t-15.5 29.5t-5 33.5q0 32 18.5 63t49.5 55t71.5 38.5t85.5 14.5q20 0 43 -3q1 10 2 22
t1 23q0 16 -5 34.5t-16 34t-28 25.5t-42 10q-35 0 -59 -12t-37 -20l25 44q14 8 40.5 18t63.5 10q50 0 77 -30t27 -75q0 -7 -0.5 -13t-1.5 -11l2 -2q20 27 44 50.5t50.5 41.5t54 28.5t54.5 10.5q26 0 44.5 -16.5t18.5 -49.5q0 -28 -18 -59.5t-49.5 -58.5t-73.5 -45t-89 -18
q-10 0 -20.5 1.5t-19.5 3.5q-6 -20 -10 -39.5t-4 -39.5q0 -48 24 -68.5t67 -20.5q56 0 107.5 29t93.5 68t73 78t47 60zM55 96q0 -32 16 -51.5t40 -19.5q38 0 64.5 23.5t44 54t26.5 60t12 41.5q-11 5 -34.5 12.5t-55.5 7.5q-51 0 -82 -36t-31 -92zM325 232q8 -4 29.5 -9
t49.5 -5q29 0 51 13t37 34t23 46.5t8 50.5q0 20 -9 36.5t-26 16.5q-31 0 -59.5 -23t-50.5 -53.5t-36.5 -61t-16.5 -45.5z" />
    <glyph glyph-name="dotlessi" unicode="&#x131;" horiz-adv-x="241" 
d="M336 235q-6 -8 -21.5 -30t-37.5 -49.5t-49 -57.5t-55 -55.5t-56.5 -41.5t-52.5 -16q-26 0 -38 18t-12 37q0 12 6.5 34.5t12.5 41.5l38 119q13 45 23 80.5t10 55.5q0 17 -10 27t-39 10h-22l5 15l157 12l-76 -239q-5 -16 -11.5 -36.5t-11.5 -40t-8.5 -35.5t-3.5 -23
q0 -13 4 -22t16 -9q18 0 41 14.5t47.5 37t49 50t45.5 53t36 46t21 29.5z" />
    <glyph glyph-name="lslash" unicode="&#x142;" horiz-adv-x="259" 
d="M350 235q-5 -8 -21 -30t-39 -49.5t-51 -57.5t-58 -55.5t-60 -41.5t-56 -16q-20 0 -31 14.5t-11 35.5q0 13 6 32t11 36l74 236l-92 -46l10 32l92 45l47 149q14 45 24.5 85t10.5 59q0 15 -6.5 22.5t-16.5 11t-22 4.5t-23 1l5 15l154 13l-102 -324l85 44l-9 -31l-86 -44
l-56 -179q-5 -15 -11 -35.5t-11.5 -40.5t-9.5 -37t-4 -26q0 -26 20 -26q18 0 42 14.5t49 37t50 50t46.5 53t36.5 45.5t21 29z" />
    <glyph glyph-name="oslash" unicode="&#xf8;" horiz-adv-x="463" 
d="M236 403q-24 -11 -53 -39t-54 -67t-42 -87t-17 -100q0 -39 17 -64.5t62 -25.5q8 0 16 1.5t16 3.5q-11 9 -20 19.5t-16.5 25t-11.5 34t-4 47.5q0 46 9 84.5t24.5 69.5t35 53.5t40.5 37.5zM144 171q0 -56 17.5 -87t42.5 -48q13 10 36 35.5t45 62t38 81t16 92.5
q0 38 -15.5 65.5t-47.5 27.5q-29 0 -53 -23.5t-41.5 -58t-27.5 -74.5t-10 -73zM14 45q-2 11 -3 23.5t-1 25.5q0 33 12 71t32.5 76t49.5 73t62.5 62t71 43t75.5 16q22 0 41.5 -6.5t31.5 -20.5q6 5 14.5 12.5t13.5 14.5l47 9l-63 -54q5 -13 8 -25.5t3 -29.5q0 -50 -22 -99.5
t-52.5 -91.5t-62 -73t-50.5 -44q9 -3 18.5 -5t18.5 -2q33 0 66 14.5t63.5 38t57.5 51.5t49.5 55.5t39 50.5t25.5 35l-8 -25q-6 -8 -20.5 -29t-36 -47.5t-49 -55.5t-58.5 -53t-64.5 -39.5t-66.5 -15.5q-15 0 -30 4t-28 9q-9 -5 -34.5 -16.5t-61.5 -11.5q-28 0 -47.5 10.5
t-30.5 28.5q-9 -14 -12.5 -20.5t-11.5 -16.5l-47 -8z" />
    <glyph glyph-name="oe" unicode="&#x153;" horiz-adv-x="648" 
d="M67 110q0 -39 17 -64.5t62 -25.5q23 0 53 25.5t57 67.5t46 95t19 109q0 40 -15.5 69t-44.5 29t-63 -27.5t-63 -71.5t-48.5 -98t-19.5 -108zM738 235q-12 -16 -30 -40.5t-42 -52.5t-54 -56t-65 -50.5t-75.5 -36.5t-84.5 -14q-54 0 -83.5 24.5t-34.5 69.5q-6 -6 -21 -21.5
t-37.5 -31.5t-50.5 -28.5t-60 -12.5q-46 0 -69.5 29t-23.5 80q0 49 24 108.5t64 111t90.5 86.5t104.5 35q17 0 33 -4.5t28 -15t19.5 -26.5t7.5 -39q37 42 85.5 63.5t91.5 21.5q26 0 44.5 -16.5t18.5 -49.5q0 -27 -17 -58.5t-46 -59.5t-68 -46.5t-83 -18.5q-27 0 -56 8
q-6 -20 -10 -40t-4 -40q0 -48 24 -68.5t67 -20.5q56 0 107.5 29t93.5 68t73 78t47 60zM360 235q4 -3 12.5 -7.5t20 -9.5t25.5 -8.5t29 -3.5q24 0 45.5 14.5t37 37t24.5 50.5t9 54q0 20 -10 36.5t-30 16.5q-31 0 -58 -23.5t-49 -54t-36.5 -60.5t-19.5 -42z" />
    <glyph glyph-name="germandbls" unicode="&#xdf;" horiz-adv-x="519" 
d="M77 6q-37 -123 -97 -187t-145 -64q-41 0 -81 19l25 81q2 -11 6.5 -25.5t13.5 -27.5t24 -22.5t38 -9.5q26 0 47 16t39.5 45.5t34.5 71t31 92.5l139 460q19 60 41.5 110.5t51.5 87t66 57t84 20.5q27 0 49 -8t37 -21t23 -29.5t8 -32.5q0 -26 -14.5 -45.5t-36.5 -36
t-47 -31.5t-47 -31.5t-36.5 -36t-14.5 -45.5q0 -40 21 -75t46 -69.5t46 -70.5t21 -77q0 -27 -12.5 -51.5t-34 -43t-51.5 -30t-66 -11.5q-33 0 -58 8.5t-43 19.5t-29 22.5t-16 16.5l31 59q0 -11 8.5 -29.5t25.5 -36.5t43 -31.5t61 -13.5q23 0 40 8t28.5 21t17 28.5t5.5 29.5
q0 36 -21.5 74t-48 76t-48 75t-21.5 71q0 27 14 48t35.5 40t46 37t46 37.5t35.5 42t14 51.5q0 32 -21 51.5t-53 19.5q-31 0 -53.5 -16.5t-40 -46.5t-33 -73t-31.5 -97z" />
    <glyph glyph-name="onesuperior" unicode="&#xb9;" horiz-adv-x="333" 
d="M119 493l133 106l51 11q-7 -17 -14 -35.5t-13 -35.5t-10.5 -31t-7.5 -23l-38 -123q-4 -12 -8 -27l-8 -30t-7.5 -28.5t-4.5 -21.5l-53 -7q2 7 8 23.5t12.5 35.5t13 37t9.5 27l61 194l-2 2l-25 -25q-20 -18 -43 -44t-39 -48z" />
    <glyph glyph-name="logicalnot" unicode="&#xac;" 
d="M412 240h-350v40h400v-140h-50v100z" />
    <glyph glyph-name="mu" unicode="&#xb5;" horiz-adv-x="519" 
d="M74 250q3 9 8 25t10 33.5t8.5 34t3.5 27.5q0 21 -11.5 29t-36.5 8h-19l5 15l151 13l-100 -327q-5 -11 -8 -26.5t-3 -26.5q2 -13 8.5 -24t25.5 -11q31 0 63 27.5t61 69.5t54.5 92t45 95t31.5 77.5t14 40.5l80 13l-76 -239q-5 -16 -11.5 -36.5t-11.5 -40t-8.5 -35.5
t-3.5 -23q0 -13 4 -22t16 -9q18 0 41 14.5t47.5 37t49 50t45.5 53t36 46t21 29.5l-8 -25q-6 -8 -21.5 -30t-37.5 -49.5t-49 -57.5t-55 -55.5t-56.5 -41.5t-52.5 -16q-26 0 -38 18t-12 37q0 12 6.5 34.5t12.5 41.5l95 299l-2 2q-2 -9 -15 -44.5t-33.5 -83.5t-49 -101.5
t-63 -98.5t-73.5 -74.5t-82 -29.5q-9 0 -15.5 4t-6.5 6h-2l-67 -230l-66 -10z" />
    <glyph glyph-name="mu" unicode="&#x3bc;" horiz-adv-x="519" 
d="M74 250q3 9 8 25t10 33.5t8.5 34t3.5 27.5q0 21 -11.5 29t-36.5 8h-19l5 15l151 13l-100 -327q-5 -11 -8 -26.5t-3 -26.5q2 -13 8.5 -24t25.5 -11q31 0 63 27.5t61 69.5t54.5 92t45 95t31.5 77.5t14 40.5l80 13l-76 -239q-5 -16 -11.5 -36.5t-11.5 -40t-8.5 -35.5
t-3.5 -23q0 -13 4 -22t16 -9q18 0 41 14.5t47.5 37t49 50t45.5 53t36 46t21 29.5l-8 -25q-6 -8 -21.5 -30t-37.5 -49.5t-49 -57.5t-55 -55.5t-56.5 -41.5t-52.5 -16q-26 0 -38 18t-12 37q0 12 6.5 34.5t12.5 41.5l95 299l-2 2q-2 -9 -15 -44.5t-33.5 -83.5t-49 -101.5
t-63 -98.5t-73.5 -74.5t-82 -29.5q-9 0 -15.5 4t-6.5 6h-2l-67 -230l-66 -10z" />
    <glyph glyph-name="trademark" unicode="&#x2122;" horiz-adv-x="538" 
d="M171 578q-7 -11 -16.5 -22.5t-20.5 -25.5q-22 -27 -46.5 -50t-44.5 -23q-29 0 -29 33q0 6 2 16.5t4 18.5l45 144q-11 0 -25 -0.5t-25 -2.5l8 13h44q2 5 6 20.5t7 37.5l39 11l-22 -69l137 3l-66 -215h5q3 9 10 28t17.5 43t24 49.5t29.5 46.5t34 34.5t37 13.5q14 0 21.5 -8
t7.5 -19q0 -13 -3.5 -24.5t-7.5 -22.5l-43 -141h6q3 8 9.5 27t17 42.5t24 49.5t29.5 47t34 35t37 14q15 0 22 -9t7 -20t-3.5 -23t-7.5 -23l-20 -64q-5 -16 -8 -31.5t-3 -20.5q0 -11 10 -11q11 0 29 15t36 34.5t32.5 38.5t20.5 27l-4 -13q-6 -8 -21.5 -28.5t-36 -42
t-42.5 -38t-40 -16.5q-8 0 -13.5 7t-5.5 15q0 10 5.5 29t10.5 35l22 70q3 9 5 19.5t2 14.5q0 5 -3 11.5t-12 6.5q-20 0 -41 -27t-39 -62t-31 -67.5t-17 -43.5l-46 -8l42 133q0 1 0.5 1.5t0.5 1.5q5 14 9 30t4 24q0 5 -3 11.5t-12 6.5q-14 0 -28.5 -13.5t-28 -34t-25.5 -45
t-21.5 -47t-16 -39t-7.5 -21.5l-45 -8zM75 606q-12 -48 -21.5 -76t-9.5 -36t2.5 -11t12.5 -3q11 0 27.5 13t33 30.5t31.5 35.5t23 28l1 3q1 4 4 12.5t5 18t4 18.5t2 14q0 14 -15 14l-80 2z" />
    <glyph glyph-name="Eth" unicode="&#xd0;" horiz-adv-x="889" 
d="M190 -10q2 27 9 62t17.5 74.5t23.5 82.5t28 86h-89l10 30h89q26 78 52 146.5t44 112.5h55q-19 -52 -43.5 -119.5t-47.5 -139.5h27q22 69 44.5 125t36.5 80l46 11q-14 -12 -29 -34t-29 -50.5t-27 -62.5t-24 -69h116l-10 -30h-115q-13 -48 -20.5 -92.5t-7.5 -75.5
q0 -23 6 -45t20.5 -39t39.5 -27.5t63 -10.5q67 0 122 31t94.5 82t61.5 116t22 133q0 67 -27 112.5t-74.5 73.5t-112 40t-139.5 12q-62 0 -118.5 -8t-100.5 -26.5t-70 -50t-26 -78.5q0 -21 10 -40l-60 -19q0 67 30 113t85 74.5t132 41.5t172 13q78 0 146.5 -11t119 -39.5
t79.5 -77.5t29 -124q0 -73 -31.5 -142.5t-84.5 -124t-122 -88t-143 -33.5q-39 0 -66 11t-44 30.5t-25 45.5t-8 55q0 39 8 82.5t22 85.5h-28q-21 -69 -37 -136t-22 -127q13 -11 22 -16t29 -16z" />
    <glyph glyph-name="onehalf" unicode="&#xbd;" horiz-adv-x="759" 
d="M139 248q2 7 8 23.5t12.5 35.5t13 37t9.5 27l61 194l-2 2l-25 -25q-20 -18 -43 -43.5t-39 -47.5l-15 42l133 106l51 11q-7 -17 -14 -35.5t-13 -35.5t-10.5 -31t-7.5 -23l-38 -123q-4 -12 -8 -27l-8 -30t-7.5 -28.5t-4.5 -21.5zM134 -15q41 83 99 168.5t124 168t135.5 160
t132.5 143.5l17 -15q-40 -37 -83 -84t-85.5 -100t-83 -109t-75 -111.5t-61.5 -108t-43 -97.5zM379 30l162 146q25 23 45.5 48t20.5 54q0 22 -18.5 37t-49.5 15q-27 0 -47 -6t-29 -11l-6 21q11 5 37 13t65 8q48 0 75.5 -24t27.5 -57q0 -17 -8.5 -33t-20.5 -29.5t-26.5 -25
t-26.5 -20.5l-115 -88q-3 -3 -10.5 -9t-15.5 -13t-15 -13t-9 -8h87q34 0 64.5 1.5t64.5 6.5l-21 -46q-17 2 -35.5 2.5t-36.5 0.5h-95q-6 0 -16 -0.5t-21 -1t-21 -1t-16 -0.5z" />
    <glyph glyph-name="plusminus" unicode="&#xb1;" 
d="M237 190h-175v40h175v205h50v-205h175v-40h-175v-155h-50v155zM62 -15h400v-40h-400v40z" />
    <glyph glyph-name="Thorn" unicode="&#xde;" horiz-adv-x="704" 
d="M300 -15q0 6 -0.5 11.5t-0.5 11.5q0 24 8.5 73t25.5 108t43.5 121t62 113t81 83.5t100.5 32.5q51 0 77.5 -31t26.5 -86q0 -49 -20 -94t-52.5 -79.5t-74 -55t-83.5 -20.5q-22 0 -39 5t-29 12t-20 14.5t-12 11.5l30 51q2 -6 8 -19.5t16.5 -26.5t26.5 -23t39 -10q29 0 55 21
t46 53.5t32 70.5t12 72q0 40 -20 67t-54 27q-40 0 -74.5 -25t-63 -65.5t-50.5 -91t-37 -101.5t-23 -98t-8 -79q0 -10 0.5 -19.5t0.5 -19.5zM196 -10q3 39 15.5 93.5t31 116t40.5 124t42.5 117.5t37.5 96.5t26 60.5q-8 1 -16.5 1.5t-16.5 0.5q-46 0 -89.5 -9.5t-77.5 -28.5
t-54.5 -48t-20.5 -68q0 -11 1.5 -21t3.5 -21l-60 -20q4 65 29.5 110.5t71 74.5t110.5 42.5t148 13.5h31q-13 -32 -30.5 -78.5t-36 -100.5t-36 -111.5t-32.5 -112t-25 -102.5t-12 -83q-2 -11 -2 -19.5t-1 -17.5z" />
    <glyph glyph-name="onequarter" unicode="&#xbc;" horiz-adv-x="759" 
d="M139 248q2 7 8 23.5t12.5 35.5t13 37t9.5 27l61 194l-2 2l-25 -25q-20 -18 -43 -43.5t-39 -47.5l-15 42l133 106l51 11q-7 -17 -14 -35.5t-13 -35.5t-10.5 -31t-7.5 -23l-38 -123q-4 -12 -8 -27l-8 -30t-7.5 -28.5t-4.5 -21.5zM134 -15q41 83 99 168.5t124 168t135.5 160
t132.5 143.5l17 -15q-40 -37 -83 -84t-85.5 -100t-83 -109t-75 -111.5t-61.5 -108t-43 -97.5zM512 -5q2 5 7 18.5t11 31.5l12.5 37.5t12.5 36.5h-73q-20 0 -38 -1.5t-32 -5.5l-9 11q23 21 46 47t42.5 54t33.5 56t20 53l58 24q-21 -39 -37 -65t-32.5 -48t-35.5 -43.5
t-46 -51.5h112l61 195l48 11l-69 -206h25q15 0 31.5 1t30.5 3l-19 -37q-9 2 -21 2.5t-23 0.5h-33l-7 -24.5t-10.5 -36.5t-10 -35.5t-5.5 -22.5z" />
    <glyph glyph-name="divide" unicode="&#xf7;" 
d="M262 390q16 0 27 -11t11 -27t-11 -27t-27 -11t-27 11t-11 27t11 27t27 11zM262 106q16 0 27 -11t11 -27t-11 -27t-27 -11t-27 11t-11 27t11 27t27 11zM62 230h400v-40h-400v40z" />
    <glyph glyph-name="brokenbar" unicode="&#xa6;" horiz-adv-x="278" 
d="M130 675h50v-350h-50v350zM130 175h50v-350h-50v350z" />
    <glyph glyph-name="degree" unicode="&#xb0;" 
d="M294 346q-29 0 -54 11t-44 29.5t-30 44t-11 54.5t11 54.5t29.5 44.5t44 30t54.5 11q32 0 58 -11t44 -30t28 -44.5t10 -54.5t-11 -54.5t-30 -44t-44.5 -29.5t-54.5 -11zM185 485q0 -23 8.5 -43t23 -34.5t34.5 -23t43 -8.5q47 0 78.5 31t31.5 78q0 23 -8.5 43t-23.5 35
t-35 23.5t-43 8.5t-43 -8.5t-34.5 -23.5t-23 -35t-8.5 -43z" />
    <glyph glyph-name="thorn" unicode="&#xfe;" horiz-adv-x="481" 
d="M164 519q14 45 24.5 85t10.5 59q0 15 -6.5 22.5t-16.5 11t-22 4.5t-23 1l5 15l154 13l-302 -957h16q3 9 13 42.5t25.5 81.5t36 107t45 118.5t53 116t59.5 100t64.5 70t68.5 26.5q16 0 28.5 -8t20.5 -21.5t12 -31t4 -35.5q0 -35 -10.5 -75.5t-29.5 -79.5t-44 -75
t-53.5 -63.5t-60 -44t-61.5 -16.5q-19 0 -32 4t-21.5 9.5t-13.5 12t-8 11.5l40 33q1 -5 4.5 -13.5t10.5 -16.5t17.5 -14t25.5 -6q24 0 46 16.5t41 43.5t34.5 61t26.5 69.5t17 69t6 58.5q0 10 -1.5 21t-6 20t-11.5 15t-17 6q-31 0 -62 -32t-59.5 -78.5t-52.5 -99t-40 -93.5
q-7 -18 -17 -45.5t-20.5 -59t-21 -64.5t-19.5 -61.5t-16 -51t-10 -32.5l-92 -13z" />
    <glyph glyph-name="threequarters" unicode="&#xbe;" horiz-adv-x="759" 
d="M532 -5q2 5 7 18.5t11 31.5l12.5 37.5t12.5 36.5h-73q-20 0 -38 -1.5t-32 -5.5l-9 11q23 21 46 47t42.5 54t33.5 56t20 53l58 24q-21 -39 -37 -65t-32.5 -48t-35.5 -43.5t-46 -51.5h112l61 195l48 11l-69 -206h25q15 0 31.5 1t30.5 3l-19 -37q-9 2 -21 2.5t-23 0.5h-33
l-7 -24.5t-10.5 -36.5t-10 -35.5t-5.5 -22.5zM156 -15q41 83 99 168.5t124 168t135.5 160t132.5 143.5l17 -15q-40 -37 -83 -84t-85.5 -100t-83 -109t-75 -111.5t-61.5 -108t-43 -97.5zM145 597q32 13 69 13q48 0 75.5 -18.5t27.5 -50.5q0 -21 -12.5 -36.5t-30 -25.5
t-37 -16t-32.5 -7v-2q10 -3 25 -10.5t29.5 -19.5t25 -29.5t10.5 -39.5t-12 -41.5t-32.5 -34t-48 -23t-59.5 -8.5q-20 0 -40.5 4t-39.5 11l10 20q17 -6 34 -10.5t34 -4.5q47 0 75.5 25.5t28.5 60.5q0 28 -15.5 45t-36.5 26t-42 12.5t-32 4.5l15 26q9 -2 18 -3t18 -1
q50 0 73.5 23t23.5 54q0 26 -18 37.5t-41 11.5q-15 0 -29 -3.5t-28 -8.5z" />
    <glyph glyph-name="twosuperior" unicode="&#xb2;" horiz-adv-x="333" 
d="M47 285l162 146q25 23 45.5 48t20.5 54q0 22 -18.5 37t-49.5 15q-27 0 -47 -6t-29 -11l-6 21q11 5 37 13t65 8q48 0 75.5 -24t27.5 -57q0 -17 -8.5 -33t-20.5 -29.5t-26.5 -25t-26.5 -20.5l-115 -88q-3 -3 -10.5 -9t-15.5 -13t-15 -13t-9 -8h87q34 0 64.5 1.5t64.5 6.5
l-21 -46q-17 2 -35.5 2.5t-36.5 0.5h-95q-6 0 -16 -0.5t-21 -1t-21 -1t-16 -0.5z" />
    <glyph glyph-name="registered" unicode="&#xae;" horiz-adv-x="500" 
d="M204 410q22 2 29.5 8t7.5 32v143q0 12 -1.5 19t-6 10t-11.5 4t-18 3v20h122q23 0 43 -2.5t34.5 -9.5t23 -19.5t8.5 -33.5q0 -18 -7.5 -29.5t-18.5 -18.5t-23.5 -10.5t-23.5 -6.5q23 -14 33 -30t14.5 -30t7.5 -23t13 -9q6 0 9 4t4.5 9.5t2 11t0.5 8.5h20q0 -8 -2 -20
t-8 -23t-16.5 -18.5t-26.5 -7.5q-22 0 -33 9t-16.5 22.5t-8 29.5t-7 29.5t-14 22.5t-27.5 9h-11v-60q0 -15 1 -22.5t5 -11.5t11.5 -5.5t20.5 -3.5v-19h-130v19zM296 534h21q11 0 21 1.5t18 6.5t13 14t5 23q0 23 -8.5 36.5t-34.5 13.5t-30.5 -9.5t-4.5 -28.5v-57zM320 290
q-47 0 -89.5 17.5t-74.5 48t-51 71.5t-19 88t19 88t51 71.5t74.5 48t89.5 17.5t89.5 -17.5t74.5 -48t51 -71.5t19 -88t-19 -88t-51 -71.5t-74.5 -48t-89.5 -17.5zM121 515q0 -40 16 -74.5t43 -60t63 -40.5t77 -15q40 0 76.5 15t63.5 40.5t43 60t16 74.5t-16 74.5t-43 60
t-63.5 40.5t-76.5 15q-41 0 -77 -15t-63 -40.5t-43 -60t-16 -74.5z" />
    <glyph glyph-name="minus" unicode="&#x2212;" 
d="M62 230h400v-40h-400v40z" />
    <glyph glyph-name="eth" unicode="&#xf0;" horiz-adv-x="463" 
d="M73 119q0 -15 4 -30.5t12.5 -28.5t22 -21.5t32.5 -8.5q17 0 37 14.5t40 38.5t38.5 54t32.5 61t22.5 60.5t8.5 52.5q0 43 -18.5 71t-48.5 28q-23 0 -45.5 -15t-43 -40t-38 -56t-30 -63.5t-19.5 -63t-7 -53.5zM364 618q3 -8 6.5 -18t9.5 -31q6 -20 10 -39t7 -40.5
t4.5 -46.5t1.5 -57q0 -43 -11 -90t-30.5 -91.5t-47 -84.5t-60 -70t-69.5 -47.5t-76 -17.5q-48 0 -74.5 31.5t-26.5 79.5q0 32 12.5 70t34 77t49.5 75.5t59.5 64.5t64.5 45t63 17q23 0 33 -11t12 -25h5q7 95 -3 151q-4 23 -10 37l-95 -59l-6 20l95 59q-8 25 -20 49t-28 46
l35 18q27 -36 49 -91l79 49l6 -24z" />
    <glyph glyph-name="multiply" unicode="&#xd7;" 
d="M60 17l172 193l-169 192l35 33l166 -189l170 189l34 -33l-171 -192l170 -193l-35 -32l-168 189l-168 -189z" />
    <glyph glyph-name="threesuperior" unicode="&#xb3;" horiz-adv-x="333" 
d="M145 597q32 13 69 13q48 0 75.5 -18.5t27.5 -50.5q0 -21 -12.5 -36.5t-30 -25.5t-37 -16t-32.5 -7v-2q10 -3 25 -10.5t29.5 -19.5t25 -29.5t10.5 -39.5t-12 -41.5t-32.5 -34t-48 -23t-59.5 -8.5q-20 0 -40.5 4t-39.5 11l10 20q17 -6 34 -10.5t34 -4.5q47 0 75.5 25.5
t28.5 60.5q0 28 -15.5 45t-36.5 26t-42 12.5t-32 4.5l15 26q9 -2 18 -3t18 -1q50 0 73.5 23t23.5 54q0 26 -18 37.5t-41 11.5q-15 0 -29 -3.5t-28 -8.5z" />
    <glyph glyph-name="copyright" unicode="&#xa9;" horiz-adv-x="500" 
d="M428 476q-2 -12 -5 -28.5t-13 -31.5t-29.5 -26t-53.5 -11q-57 0 -93 37.5t-36 96.5q0 31 11 57.5t28.5 45.5t39.5 30t44 11q15 0 25.5 -2.5t18.5 -5.5t14.5 -5.5t12.5 -2.5t9.5 5t7.5 10h15v-102l-15 -3q-5 12 -11 27t-14.5 27.5t-20.5 21.5t-29 9q-35 0 -53 -31.5
t-18 -90.5q0 -51 18.5 -81.5t55.5 -30.5q21 0 34 8.5t20.5 20t10.5 24t5 20.5zM320 290q-47 0 -89.5 17.5t-74.5 48t-51 71.5t-19 88t19 88t51 71.5t74.5 48t89.5 17.5t89.5 -17.5t74.5 -48t51 -71.5t19 -88t-19 -88t-51 -71.5t-74.5 -48t-89.5 -17.5zM121 515
q0 -40 16 -74.5t43 -60t63 -40.5t77 -15q40 0 76.5 15t63.5 40.5t43 60t16 74.5t-16 75t-43 60.5t-63.5 40t-76.5 14.5q-41 0 -77 -14.5t-63 -40t-43 -60.5t-16 -75z" />
    <glyph glyph-name="Aacute" unicode="&#xc1;" horiz-adv-x="796" 
d="M354 205q-17 -31 -40 -69t-53.5 -71.5t-71 -56.5t-92.5 -23q-35 0 -61.5 10.5t-44 26.5t-26.5 36t-9 40q0 55 31.5 89t82.5 53.5t115.5 26.5t131.5 7h47q31 48 61.5 93.5t63 89t69 84.5t80.5 81l109 25q-8 -18 -23 -57.5t-29 -91t-24.5 -110.5t-10.5 -116
q0 -74 13 -115.5t25 -60.5l-25 -24q-11 25 -22 64.5t-11 110.5q0 59 10 117.5t23.5 109.5t27 91.5t21.5 62.5l-33 -6q-9 -27 -23.5 -74.5t-28 -105.5t-23 -121.5t-9.5 -121.5q0 -62 5 -98t17 -55t31.5 -24t47.5 -6l-5 -16l-137 -4q-5 16 -8.5 38t-6 45t-3.5 45t-1 38
q0 23 1 46t3 46h-168zM298 254q-20 0 -49 -1t-61.5 -5.5t-65 -13t-58.5 -24t-42 -39t-16 -57.5q0 -25 9.5 -44.5t25 -32.5t36.5 -20t44 -7q38 0 67 16.5t53.5 45t46 66t44.5 80.5l19 36h-53zM550 274q4 39 12 80.5t18 82.5t22 80.5t24 72.5l-2 2q-70 -80 -128.5 -159
t-103.5 -159h158zM590 725l170 124l15 -61l-175 -77z" />
    <glyph glyph-name="Acircumflex" unicode="&#xc2;" horiz-adv-x="796" 
d="M354 205q-17 -31 -40 -69t-53.5 -71.5t-71 -56.5t-92.5 -23q-35 0 -61.5 10.5t-44 26.5t-26.5 36t-9 40q0 55 31.5 89t82.5 53.5t115.5 26.5t131.5 7h47q31 48 61.5 93.5t63 89t69 84.5t80.5 81l109 25q-8 -18 -23 -57.5t-29 -91t-24.5 -110.5t-10.5 -116
q0 -74 13 -115.5t25 -60.5l-25 -24q-11 25 -22 64.5t-11 110.5q0 59 10 117.5t23.5 109.5t27 91.5t21.5 62.5l-33 -6q-9 -27 -23.5 -74.5t-28 -105.5t-23 -121.5t-9.5 -121.5q0 -62 5 -98t17 -55t31.5 -24t47.5 -6l-5 -16l-137 -4q-5 16 -8.5 38t-6 45t-3.5 45t-1 38
q0 23 1 46t3 46h-168zM298 254q-20 0 -49 -1t-61.5 -5.5t-65 -13t-58.5 -24t-42 -39t-16 -57.5q0 -25 9.5 -44.5t25 -32.5t36.5 -20t44 -7q38 0 67 16.5t53.5 45t46 66t44.5 80.5l19 36h-53zM550 274q4 39 12 80.5t18 82.5t22 80.5t24 72.5l-2 2q-70 -80 -128.5 -159
t-103.5 -159h158zM552 723l165 129l55 -132l-14 -9l-62 75l-135 -75z" />
    <glyph glyph-name="Adieresis" unicode="&#xc4;" horiz-adv-x="796" 
d="M354 205q-17 -31 -40 -69t-53.5 -71.5t-71 -56.5t-92.5 -23q-35 0 -61.5 10.5t-44 26.5t-26.5 36t-9 40q0 55 31.5 89t82.5 53.5t115.5 26.5t131.5 7h47q31 48 61.5 93.5t63 89t69 84.5t80.5 81l109 25q-8 -18 -23 -57.5t-29 -91t-24.5 -110.5t-10.5 -116
q0 -74 13 -115.5t25 -60.5l-25 -24q-11 25 -22 64.5t-11 110.5q0 59 10 117.5t23.5 109.5t27 91.5t21.5 62.5l-33 -6q-9 -27 -23.5 -74.5t-28 -105.5t-23 -121.5t-9.5 -121.5q0 -62 5 -98t17 -55t31.5 -24t47.5 -6l-5 -16l-137 -4q-5 16 -8.5 38t-6 45t-3.5 45t-1 38
q0 23 1 46t3 46h-168zM298 254q-20 0 -49 -1t-61.5 -5.5t-65 -13t-58.5 -24t-42 -39t-16 -57.5q0 -25 9.5 -44.5t25 -32.5t36.5 -20t44 -7q38 0 67 16.5t53.5 45t46 66t44.5 80.5l19 36h-53zM550 274q4 39 12 80.5t18 82.5t22 80.5t24 72.5l-2 2q-70 -80 -128.5 -159
t-103.5 -159h158zM603 711q-14 0 -25 10t-11 26q0 14 11 25t25 11q15 0 25.5 -9.5t10.5 -26.5q0 -15 -10.5 -25.5t-25.5 -10.5zM746 711q-15 0 -25.5 10.5t-10.5 25.5q0 14 10.5 25t25.5 11t25.5 -9.5t10.5 -26.5q0 -15 -10.5 -25.5t-25.5 -10.5z" />
    <glyph glyph-name="Agrave" unicode="&#xc0;" horiz-adv-x="796" 
d="M354 205q-17 -31 -40 -69t-53.5 -71.5t-71 -56.5t-92.5 -23q-35 0 -61.5 10.5t-44 26.5t-26.5 36t-9 40q0 55 31.5 89t82.5 53.5t115.5 26.5t131.5 7h47q31 48 61.5 93.5t63 89t69 84.5t80.5 81l109 25q-8 -18 -23 -57.5t-29 -91t-24.5 -110.5t-10.5 -116
q0 -74 13 -115.5t25 -60.5l-25 -24q-11 25 -22 64.5t-11 110.5q0 59 10 117.5t23.5 109.5t27 91.5t21.5 62.5l-33 -6q-9 -27 -23.5 -74.5t-28 -105.5t-23 -121.5t-9.5 -121.5q0 -62 5 -98t17 -55t31.5 -24t47.5 -6l-5 -16l-137 -4q-5 16 -8.5 38t-6 45t-3.5 45t-1 38
q0 23 1 46t3 46h-168zM298 254q-20 0 -49 -1t-61.5 -5.5t-65 -13t-58.5 -24t-42 -39t-16 -57.5q0 -25 9.5 -44.5t25 -32.5t36.5 -20t44 -7q38 0 67 16.5t53.5 45t46 66t44.5 80.5l19 36h-53zM550 274q4 39 12 80.5t18 82.5t22 80.5t24 72.5l-2 2q-70 -80 -128.5 -159
t-103.5 -159h158zM553 787l42 64l80 -126l-11 -14z" />
    <glyph glyph-name="Aring" unicode="&#xc5;" horiz-adv-x="796" 
d="M354 205q-17 -31 -40 -69t-53.5 -71.5t-71 -56.5t-92.5 -23q-35 0 -61.5 10.5t-44 26.5t-26.5 36t-9 40q0 55 31.5 89t82.5 53.5t115.5 26.5t131.5 7h47q31 48 61.5 93.5t63 89t69 84.5t80.5 81l109 25q-8 -18 -23 -57.5t-29 -91t-24.5 -110.5t-10.5 -116
q0 -74 13 -115.5t25 -60.5l-25 -24q-11 25 -22 64.5t-11 110.5q0 59 10 117.5t23.5 109.5t27 91.5t21.5 62.5l-33 -6q-9 -27 -23.5 -74.5t-28 -105.5t-23 -121.5t-9.5 -121.5q0 -62 5 -98t17 -55t31.5 -24t47.5 -6l-5 -16l-137 -4q-5 16 -8.5 38t-6 45t-3.5 45t-1 38
q0 23 1 46t3 46h-168zM298 254q-20 0 -49 -1t-61.5 -5.5t-65 -13t-58.5 -24t-42 -39t-16 -57.5q0 -25 9.5 -44.5t25 -32.5t36.5 -20t44 -7q38 0 67 16.5t53.5 45t46 66t44.5 80.5l19 36h-53zM550 274q4 39 12 80.5t18 82.5t22 80.5t24 72.5l-2 2q-70 -80 -128.5 -159
t-103.5 -159h158zM650 696q-30 0 -51 14t-21 45q0 19 7.5 39.5t22.5 37t36.5 27t50.5 10.5q34 0 56 -14t22 -46q0 -21 -9 -41.5t-25 -36.5t-38.5 -25.5t-50.5 -9.5zM613 755q0 -27 12 -38t29 -11q21 0 37 10t26.5 26t15.5 35t5 36q0 25 -12.5 35.5t-32.5 10.5q-19 0 -34 -10
t-25 -25.5t-15.5 -34t-5.5 -34.5z" />
    <glyph glyph-name="Atilde" unicode="&#xc3;" horiz-adv-x="796" 
d="M354 205q-17 -31 -40 -69t-53.5 -71.5t-71 -56.5t-92.5 -23q-35 0 -61.5 10.5t-44 26.5t-26.5 36t-9 40q0 55 31.5 89t82.5 53.5t115.5 26.5t131.5 7h47q31 48 61.5 93.5t63 89t69 84.5t80.5 81l109 25q-8 -18 -23 -57.5t-29 -91t-24.5 -110.5t-10.5 -116
q0 -74 13 -115.5t25 -60.5l-25 -24q-11 25 -22 64.5t-11 110.5q0 59 10 117.5t23.5 109.5t27 91.5t21.5 62.5l-33 -6q-9 -27 -23.5 -74.5t-28 -105.5t-23 -121.5t-9.5 -121.5q0 -62 5 -98t17 -55t31.5 -24t47.5 -6l-5 -16l-137 -4q-5 16 -8.5 38t-6 45t-3.5 45t-1 38
q0 23 1 46t3 46h-168zM298 254q-20 0 -49 -1t-61.5 -5.5t-65 -13t-58.5 -24t-42 -39t-16 -57.5q0 -25 9.5 -44.5t25 -32.5t36.5 -20t44 -7q38 0 67 16.5t53.5 45t46 66t44.5 80.5l19 36h-53zM550 274q4 39 12 80.5t18 82.5t22 80.5t24 72.5l-2 2q-70 -80 -128.5 -159
t-103.5 -159h158zM566 718q4 9 11.5 20t18 21t24 17t30.5 7q16 0 28 -5.5t23 -12.5q11 -8 22 -13.5t25 -5.5q10 0 18.5 4.5t15 10.5t11.5 12.5t8 10.5l13 -8q-3 -7 -9.5 -18t-16 -21.5t-23 -18t-30.5 -7.5q-13 0 -25 5.5t-24 13.5q-12 7 -24 12.5t-26 5.5q-24 0 -36.5 -12.5
t-22.5 -24.5z" />
    <glyph glyph-name="Ccedilla" unicode="&#xc7;" horiz-adv-x="574" 
d="M252 -13q-100 5 -153 58t-53 153q0 48 13.5 99.5t38 100.5t60 93t79 77t94.5 52.5t107 19.5q37 0 69 -6.5t57.5 -15t43 -16.5t25.5 -12l-40 -94q-3 9 -11.5 28.5t-25 39.5t-42.5 35.5t-65 15.5q-47 0 -90.5 -31.5t-76.5 -80.5t-53 -110t-20 -119q0 -27 6 -54.5t18 -49.5
t31.5 -36t46.5 -14q11 0 20 2.5t20 9.5l-42 -47q-24 1 -46 11.5t-38.5 31.5t-26 53t-9.5 76q0 75 22 138t54 110t69 76.5t66 36.5l-2 4q-50 -1 -99 -38t-89 -96t-64.5 -134t-24.5 -151q0 -43 14 -77.5t39.5 -59t61 -38t79.5 -13.5q36 0 68 7t58.5 16t46 19t30.5 16l-14 -35
q-13 -5 -34 -13.5t-49.5 -17.5t-64.5 -15.5t-79 -6.5h-3l-13 -17q9 -6 22 -18t13 -32q0 -25 -22 -37.5t-46 -12.5q-9 0 -18 1t-18 3l4 12q3 0 6 -0.5t6 -0.5q7 0 15.5 1t15.5 4.5t12 10t5 16.5q0 17 -12.5 24t-21.5 11z" />
    <glyph glyph-name="Eacute" unicode="&#xc9;" horiz-adv-x="685" 
d="M573 1q-29 -6 -58 -6q-77 0 -123 12.5t-66 22.5q0 11 -1 19.5t-1 19.5q0 47 9 101t23.5 108.5t31.5 106t33 94t29 73t19 43.5q-23 5 -45.5 7.5t-45.5 2.5q-59 0 -107.5 -10t-84 -30t-55 -50t-19.5 -70q0 -11 3 -20.5t7 -19.5l-60 -20q4 57 27 101.5t70.5 75.5t122 47
t179.5 16q55 0 110 -3t111 -3q29 0 49.5 1.5t35.5 4t24.5 5.5t17.5 5q-5 -6 -13 -15t-16.5 -19t-16 -19t-11.5 -13h-10q-75 0 -136.5 8t-120.5 15q-11 -21 -24 -51t-25 -63t-23 -65t-19 -57h192l-34 -35q-28 9 -52.5 12t-62.5 3h-50q-1 -5 -6.5 -24.5t-11.5 -48.5
t-10.5 -65.5t-4.5 -75.5q0 -14 1.5 -28.5t3.5 -28.5q14 -5 51 -15t102 -10q29 0 58.5 4.5t57.5 14.5zM193 -10q3 36 14.5 85.5t28 105t35.5 114t38.5 112t37 99.5t30.5 78h55q-20 -53 -44.5 -121t-48 -142t-42 -148.5t-25.5 -140.5q13 -11 22 -16t29 -16zM485 725l170 124
l15 -61l-175 -77z" />
    <glyph glyph-name="Ecircumflex" unicode="&#xca;" horiz-adv-x="685" 
d="M573 1q-29 -6 -58 -6q-77 0 -123 12.5t-66 22.5q0 11 -1 19.5t-1 19.5q0 47 9 101t23.5 108.5t31.5 106t33 94t29 73t19 43.5q-23 5 -45.5 7.5t-45.5 2.5q-59 0 -107.5 -10t-84 -30t-55 -50t-19.5 -70q0 -11 3 -20.5t7 -19.5l-60 -20q4 57 27 101.5t70.5 75.5t122 47
t179.5 16q55 0 110 -3t111 -3q29 0 49.5 1.5t35.5 4t24.5 5.5t17.5 5q-5 -6 -13 -15t-16.5 -19t-16 -19t-11.5 -13h-10q-75 0 -136.5 8t-120.5 15q-11 -21 -24 -51t-25 -63t-23 -65t-19 -57h192l-34 -35q-28 9 -52.5 12t-62.5 3h-50q-1 -5 -6.5 -24.5t-11.5 -48.5
t-10.5 -65.5t-4.5 -75.5q0 -14 1.5 -28.5t3.5 -28.5q14 -5 51 -15t102 -10q29 0 58.5 4.5t57.5 14.5zM193 -10q3 36 14.5 85.5t28 105t35.5 114t38.5 112t37 99.5t30.5 78h55q-20 -53 -44.5 -121t-48 -142t-42 -148.5t-25.5 -140.5q13 -11 22 -16t29 -16zM447 723l165 129
l55 -132l-14 -9l-62 75l-135 -75z" />
    <glyph glyph-name="Edieresis" unicode="&#xcb;" horiz-adv-x="685" 
d="M573 1q-29 -6 -58 -6q-77 0 -123 12.5t-66 22.5q0 11 -1 19.5t-1 19.5q0 47 9 101t23.5 108.5t31.5 106t33 94t29 73t19 43.5q-23 5 -45.5 7.5t-45.5 2.5q-59 0 -107.5 -10t-84 -30t-55 -50t-19.5 -70q0 -11 3 -20.5t7 -19.5l-60 -20q4 57 27 101.5t70.5 75.5t122 47
t179.5 16q55 0 110 -3t111 -3q29 0 49.5 1.5t35.5 4t24.5 5.5t17.5 5q-5 -6 -13 -15t-16.5 -19t-16 -19t-11.5 -13h-10q-75 0 -136.5 8t-120.5 15q-11 -21 -24 -51t-25 -63t-23 -65t-19 -57h192l-34 -35q-28 9 -52.5 12t-62.5 3h-50q-1 -5 -6.5 -24.5t-11.5 -48.5
t-10.5 -65.5t-4.5 -75.5q0 -14 1.5 -28.5t3.5 -28.5q14 -5 51 -15t102 -10q29 0 58.5 4.5t57.5 14.5zM193 -10q3 36 14.5 85.5t28 105t35.5 114t38.5 112t37 99.5t30.5 78h55q-20 -53 -44.5 -121t-48 -142t-42 -148.5t-25.5 -140.5q13 -11 22 -16t29 -16zM488 711
q-14 0 -25 10t-11 26q0 14 11 25t25 11q15 0 25.5 -9.5t10.5 -26.5q0 -15 -10.5 -25.5t-25.5 -10.5zM631 711q-15 0 -25.5 10.5t-10.5 25.5q0 14 10.5 25t25.5 11t25.5 -9.5t10.5 -26.5q0 -15 -10.5 -25.5t-25.5 -10.5z" />
    <glyph glyph-name="Egrave" unicode="&#xc8;" horiz-adv-x="685" 
d="M573 1q-29 -6 -58 -6q-77 0 -123 12.5t-66 22.5q0 11 -1 19.5t-1 19.5q0 47 9 101t23.5 108.5t31.5 106t33 94t29 73t19 43.5q-23 5 -45.5 7.5t-45.5 2.5q-59 0 -107.5 -10t-84 -30t-55 -50t-19.5 -70q0 -11 3 -20.5t7 -19.5l-60 -20q4 57 27 101.5t70.5 75.5t122 47
t179.5 16q55 0 110 -3t111 -3q29 0 49.5 1.5t35.5 4t24.5 5.5t17.5 5q-5 -6 -13 -15t-16.5 -19t-16 -19t-11.5 -13h-10q-75 0 -136.5 8t-120.5 15q-11 -21 -24 -51t-25 -63t-23 -65t-19 -57h192l-34 -35q-28 9 -52.5 12t-62.5 3h-50q-1 -5 -6.5 -24.5t-11.5 -48.5
t-10.5 -65.5t-4.5 -75.5q0 -14 1.5 -28.5t3.5 -28.5q14 -5 51 -15t102 -10q29 0 58.5 4.5t57.5 14.5zM193 -10q3 36 14.5 85.5t28 105t35.5 114t38.5 112t37 99.5t30.5 78h55q-20 -53 -44.5 -121t-48 -142t-42 -148.5t-25.5 -140.5q13 -11 22 -16t29 -16zM468 787l42 64
l80 -126l-11 -14z" />
    <glyph glyph-name="Iacute" unicode="&#xcd;" horiz-adv-x="500" 
d="M186 -10q0 35 12 88.5t30 115t41 125t44 119.5t39 98.5t27 61.5q-8 1 -16.5 1.5t-16.5 0.5q-46 0 -89.5 -9.5t-77.5 -28.5t-54.5 -48t-20.5 -68q0 -11 1.5 -21t3.5 -21l-60 -20q4 66 31 110.5t74.5 72t115.5 41t155 17.5h65q0 -8 -23.5 -60.5t-54.5 -140.5
q-32 -93 -49.5 -180.5t-17.5 -159.5q0 -21 4.5 -44t15.5 -40l-41 -10q-6 17 -7 39t-1 37q0 43 9 96t23 109t31.5 110.5t34 101t30.5 80t22 47.5h-33q-9 -24 -24.5 -66.5t-33.5 -95t-36 -110.5t-33.5 -113.5t-26 -104.5t-12.5 -83q-1 -11 -1.5 -19.5t-1.5 -17.5zM352 725
l170 124l15 -61l-175 -77z" />
    <glyph glyph-name="Icircumflex" unicode="&#xce;" horiz-adv-x="500" 
d="M186 -10q0 35 12 88.5t30 115t41 125t44 119.5t39 98.5t27 61.5q-8 1 -16.5 1.5t-16.5 0.5q-46 0 -89.5 -9.5t-77.5 -28.5t-54.5 -48t-20.5 -68q0 -11 1.5 -21t3.5 -21l-60 -20q4 66 31 110.5t74.5 72t115.5 41t155 17.5h65q0 -8 -23.5 -60.5t-54.5 -140.5
q-32 -93 -49.5 -180.5t-17.5 -159.5q0 -21 4.5 -44t15.5 -40l-41 -10q-6 17 -7 39t-1 37q0 43 9 96t23 109t31.5 110.5t34 101t30.5 80t22 47.5h-33q-9 -24 -24.5 -66.5t-33.5 -95t-36 -110.5t-33.5 -113.5t-26 -104.5t-12.5 -83q-1 -11 -1.5 -19.5t-1.5 -17.5zM324 723
l165 129l55 -132l-14 -9l-62 75l-135 -75z" />
    <glyph glyph-name="Idieresis" unicode="&#xcf;" horiz-adv-x="500" 
d="M186 -10q0 35 12 88.5t30 115t41 125t44 119.5t39 98.5t27 61.5q-8 1 -16.5 1.5t-16.5 0.5q-46 0 -89.5 -9.5t-77.5 -28.5t-54.5 -48t-20.5 -68q0 -11 1.5 -21t3.5 -21l-60 -20q4 66 31 110.5t74.5 72t115.5 41t155 17.5h65q0 -8 -23.5 -60.5t-54.5 -140.5
q-32 -93 -49.5 -180.5t-17.5 -159.5q0 -21 4.5 -44t15.5 -40l-41 -10q-6 17 -7 39t-1 37q0 43 9 96t23 109t31.5 110.5t34 101t30.5 80t22 47.5h-33q-9 -24 -24.5 -66.5t-33.5 -95t-36 -110.5t-33.5 -113.5t-26 -104.5t-12.5 -83q-1 -11 -1.5 -19.5t-1.5 -17.5zM365 711
q-14 0 -25 10t-11 26q0 14 11 25t25 11q15 0 25.5 -9.5t10.5 -26.5q0 -15 -10.5 -25.5t-25.5 -10.5zM508 711q-15 0 -25.5 10.5t-10.5 25.5q0 14 10.5 25t25.5 11t25.5 -9.5t10.5 -26.5q0 -15 -10.5 -25.5t-25.5 -10.5z" />
    <glyph glyph-name="Igrave" unicode="&#xcc;" horiz-adv-x="500" 
d="M186 -10q0 35 12 88.5t30 115t41 125t44 119.5t39 98.5t27 61.5q-8 1 -16.5 1.5t-16.5 0.5q-46 0 -89.5 -9.5t-77.5 -28.5t-54.5 -48t-20.5 -68q0 -11 1.5 -21t3.5 -21l-60 -20q4 66 31 110.5t74.5 72t115.5 41t155 17.5h65q0 -8 -23.5 -60.5t-54.5 -140.5
q-32 -93 -49.5 -180.5t-17.5 -159.5q0 -21 4.5 -44t15.5 -40l-41 -10q-6 17 -7 39t-1 37q0 43 9 96t23 109t31.5 110.5t34 101t30.5 80t22 47.5h-33q-9 -24 -24.5 -66.5t-33.5 -95t-36 -110.5t-33.5 -113.5t-26 -104.5t-12.5 -83q-1 -11 -1.5 -19.5t-1.5 -17.5zM345 787
l42 64l80 -126l-11 -14z" />
    <glyph glyph-name="Ntilde" unicode="&#xd1;" horiz-adv-x="852" 
d="M190 -10q4 37 15.5 88.5t28.5 109t37 117.5t40.5 115.5t40 102t34.5 77.5h-11q-56 0 -104.5 -9t-84 -28.5t-56 -49t-20.5 -70.5q0 -10 1.5 -19t3.5 -18l-60 -21q0 51 18 88.5t48 64t69 43t81 26t84.5 13.5t78.5 5q7 -61 27 -131t48 -140t62.5 -135.5t70.5 -118.5h2
q0 9 1 18.5t3 18.5q-35 49 -66 108.5t-56 123.5t-41.5 128t-22.5 122l35 16q-1 -8 -2 -15.5t-1 -16.5q0 -68 20 -138.5t46.5 -131.5t52.5 -107.5t39 -65.5q2 11 9 39.5t18 68.5t27.5 87.5t37.5 95.5t47.5 93t59 79.5t70.5 55.5t82 21q24 0 41.5 -6.5t28.5 -15.5t16 -19.5
t6 -17.5l-75 -43q1 6 3 12.5t2 12.5q0 18 -14 30t-32 12q-38 0 -72.5 -25.5t-64.5 -68.5t-55.5 -98.5t-46 -115t-36.5 -118.5t-27 -109.5t-17 -87.5t-6 -52q-46 49 -88 118t-77.5 144.5t-62 150t-41.5 134.5h-2q-5 -13 -17 -48t-27.5 -82.5t-31.5 -102.5t-29.5 -107.5
t-22 -99t-8.5 -75.5q0 -5 1 -11t2 -11zM534 718q4 9 11.5 20t18 21t24 17t30.5 7q16 0 28 -5.5t23 -12.5q11 -8 22 -13.5t25 -5.5q10 0 18.5 4.5t15 10.5t11.5 12.5t8 10.5l13 -8q-3 -7 -9.5 -18t-16 -21.5t-23 -18t-30.5 -7.5q-13 0 -25 5.5t-24 13.5q-12 7 -24 12.5
t-26 5.5q-24 0 -36.5 -12.5t-22.5 -24.5z" />
    <glyph glyph-name="Oacute" unicode="&#xd3;" horiz-adv-x="685" 
d="M254 -15q-94 0 -150.5 55t-56.5 156q0 49 13.5 100.5t38 101t59 93.5t77 77t91 52.5t101.5 19.5q98 0 154 -54t56 -151q0 -77 -30.5 -156.5t-82.5 -145t-121.5 -107t-148.5 -41.5zM311 87q-27 0 -50 13t-39.5 35.5t-25.5 53t-9 66.5q0 38 12 91t37.5 106t66.5 98.5
t98 69.5l-2 5q-48 -4 -96.5 -42t-87.5 -98t-63.5 -136t-24.5 -155q0 -39 8 -74.5t25 -62t42.5 -42t60.5 -15.5q58 0 112.5 37t95.5 98t66 137.5t25 156.5q0 37 -8 71.5t-23 61t-37.5 42.5t-51.5 16q-39 0 -78.5 -30t-71.5 -78t-52.5 -108.5t-20.5 -121.5q0 -27 5 -54.5
t16 -50t29 -36.5t44 -14q15 0 29 7.5t27 16.5l-58 -64v0zM385 725l170 124l15 -61l-175 -77z" />
    <glyph glyph-name="Ocircumflex" unicode="&#xd4;" horiz-adv-x="685" 
d="M254 -15q-94 0 -150.5 55t-56.5 156q0 49 13.5 100.5t38 101t59 93.5t77 77t91 52.5t101.5 19.5q98 0 154 -54t56 -151q0 -77 -30.5 -156.5t-82.5 -145t-121.5 -107t-148.5 -41.5zM311 87q-27 0 -50 13t-39.5 35.5t-25.5 53t-9 66.5q0 38 12 91t37.5 106t66.5 98.5
t98 69.5l-2 5q-48 -4 -96.5 -42t-87.5 -98t-63.5 -136t-24.5 -155q0 -39 8 -74.5t25 -62t42.5 -42t60.5 -15.5q58 0 112.5 37t95.5 98t66 137.5t25 156.5q0 37 -8 71.5t-23 61t-37.5 42.5t-51.5 16q-39 0 -78.5 -30t-71.5 -78t-52.5 -108.5t-20.5 -121.5q0 -27 5 -54.5
t16 -50t29 -36.5t44 -14q15 0 29 7.5t27 16.5l-58 -64v0zM337 723l165 129l55 -132l-14 -9l-62 75l-135 -75z" />
    <glyph glyph-name="Odieresis" unicode="&#xd6;" horiz-adv-x="685" 
d="M254 -15q-94 0 -150.5 55t-56.5 156q0 49 13.5 100.5t38 101t59 93.5t77 77t91 52.5t101.5 19.5q98 0 154 -54t56 -151q0 -77 -30.5 -156.5t-82.5 -145t-121.5 -107t-148.5 -41.5zM311 87q-27 0 -50 13t-39.5 35.5t-25.5 53t-9 66.5q0 38 12 91t37.5 106t66.5 98.5
t98 69.5l-2 5q-48 -4 -96.5 -42t-87.5 -98t-63.5 -136t-24.5 -155q0 -39 8 -74.5t25 -62t42.5 -42t60.5 -15.5q58 0 112.5 37t95.5 98t66 137.5t25 156.5q0 37 -8 71.5t-23 61t-37.5 42.5t-51.5 16q-39 0 -78.5 -30t-71.5 -78t-52.5 -108.5t-20.5 -121.5q0 -27 5 -54.5
t16 -50t29 -36.5t44 -14q15 0 29 7.5t27 16.5l-58 -64v0zM378 711q-14 0 -25 10t-11 26q0 14 11 25t25 11q15 0 25.5 -9.5t10.5 -26.5q0 -15 -10.5 -25.5t-25.5 -10.5zM521 711q-15 0 -25.5 10.5t-10.5 25.5q0 14 10.5 25t25.5 11t25.5 -9.5t10.5 -26.5q0 -15 -10.5 -25.5
t-25.5 -10.5z" />
    <glyph glyph-name="Ograve" unicode="&#xd2;" horiz-adv-x="685" 
d="M254 -15q-94 0 -150.5 55t-56.5 156q0 49 13.5 100.5t38 101t59 93.5t77 77t91 52.5t101.5 19.5q98 0 154 -54t56 -151q0 -77 -30.5 -156.5t-82.5 -145t-121.5 -107t-148.5 -41.5zM311 87q-27 0 -50 13t-39.5 35.5t-25.5 53t-9 66.5q0 38 12 91t37.5 106t66.5 98.5
t98 69.5l-2 5q-48 -4 -96.5 -42t-87.5 -98t-63.5 -136t-24.5 -155q0 -39 8 -74.5t25 -62t42.5 -42t60.5 -15.5q58 0 112.5 37t95.5 98t66 137.5t25 156.5q0 37 -8 71.5t-23 61t-37.5 42.5t-51.5 16q-39 0 -78.5 -30t-71.5 -78t-52.5 -108.5t-20.5 -121.5q0 -27 5 -54.5
t16 -50t29 -36.5t44 -14q15 0 29 7.5t27 16.5l-58 -64v0zM358 787l42 64l80 -126l-11 -14z" />
    <glyph glyph-name="Otilde" unicode="&#xd5;" horiz-adv-x="685" 
d="M254 -15q-94 0 -150.5 55t-56.5 156q0 49 13.5 100.5t38 101t59 93.5t77 77t91 52.5t101.5 19.5q98 0 154 -54t56 -151q0 -77 -30.5 -156.5t-82.5 -145t-121.5 -107t-148.5 -41.5zM311 87q-27 0 -50 13t-39.5 35.5t-25.5 53t-9 66.5q0 38 12 91t37.5 106t66.5 98.5
t98 69.5l-2 5q-48 -4 -96.5 -42t-87.5 -98t-63.5 -136t-24.5 -155q0 -39 8 -74.5t25 -62t42.5 -42t60.5 -15.5q58 0 112.5 37t95.5 98t66 137.5t25 156.5q0 37 -8 71.5t-23 61t-37.5 42.5t-51.5 16q-39 0 -78.5 -30t-71.5 -78t-52.5 -108.5t-20.5 -121.5q0 -27 5 -54.5
t16 -50t29 -36.5t44 -14q15 0 29 7.5t27 16.5l-58 -64v0zM321 718q4 9 11.5 20t18 21t24 17t30.5 7q16 0 28 -5.5t23 -12.5q11 -8 22 -13.5t25 -5.5q10 0 18.5 4.5t15 10.5t11.5 12.5t8 10.5l13 -8q-3 -7 -9.5 -18t-16 -21.5t-23 -18t-30.5 -7.5q-13 0 -25 5.5t-24 13.5
q-12 7 -24 12.5t-26 5.5q-24 0 -36.5 -12.5t-22.5 -24.5z" />
    <glyph glyph-name="Scaron" unicode="&#x160;" horiz-adv-x="481" 
d="M198 587q-8 -11 -20.5 -34.5t-12.5 -58.5q0 -31 14 -59.5t35 -55t45 -53t45 -54.5t35 -58.5t14 -65.5q0 -20 -4.5 -35t-11.5 -27t-14 -20.5t-12 -14.5q15 2 30.5 9.5t28 21t20 32t7.5 42.5q0 36 -15 67.5t-38 60.5t-49.5 56.5t-49.5 55.5t-38 57.5t-15 62.5q0 21 6.5 43
t22 40t40.5 29.5t62 11.5q25 0 46.5 -4.5t38 -11t28 -13t18.5 -10.5l-25 -63q-3 6 -10 19t-20 26t-33 22.5t-48 9.5q-29 0 -49 -10t-33 -25.5t-18.5 -34t-5.5 -36.5q0 -29 15 -56.5t37 -55t48 -54.5t48 -56.5t37 -62t15 -68.5q0 -34 -13.5 -58.5t-33.5 -40.5t-44 -24.5
t-46 -9.5q-11 -10 -40.5 -24t-81.5 -14q-38 0 -72 10t-60.5 28.5t-42 44.5t-15.5 59v11l65 50q-4 -12 -7 -24.5t-3 -26.5q0 -24 10 -48.5t29.5 -44t47 -32t62.5 -12.5t59 12.5t39 32t21.5 43.5t6.5 46q0 34 -13 63t-33 55.5t-43 52t-43 52t-33 56t-13 64.5q0 33 10 54t15 29
zM272 840l15 9l61 -76l135 76l9 -13l-164 -128z" />
    <glyph glyph-name="Uacute" unicode="&#xda;" horiz-adv-x="796" 
d="M686 610q-2 -10 -18.5 -68t-48.5 -153q-24 -70 -51 -142t-61 -130t-78.5 -95t-102.5 -37q-34 0 -60 13.5t-44 37t-27 55.5t-9 69q0 53 13 103.5t33.5 96t45.5 85t49 70.5t44.5 53t31.5 32h-23q-53 0 -102 -8.5t-86.5 -27t-60 -49t-22.5 -74.5q0 -10 1.5 -19t3.5 -18
l-60 -20q0 64 29.5 109.5t82 75t125 43t157.5 13.5q-24 -24 -56 -69.5t-61.5 -105t-49.5 -128t-20 -138.5q0 -24 5.5 -48.5t17.5 -44.5t30 -33t43 -13q42 0 77.5 30t65.5 79t55.5 110.5t46.5 124.5q24 72 42 131t29 105h120q-4 -8 -18 -42.5t-32.5 -85t-39.5 -110.5
t-38 -119.5t-28.5 -113t-11.5 -90.5q0 -17 6 -25.5t15.5 -13t21.5 -5t23 -0.5l-5 -20l-152 -5q5 39 17 89.5t28 107t35.5 115.5t39.5 114t40 104t38 85h-46zM500 725l170 124l15 -61l-175 -77z" />
    <glyph glyph-name="Ucircumflex" unicode="&#xdb;" horiz-adv-x="796" 
d="M686 610q-2 -10 -18.5 -68t-48.5 -153q-24 -70 -51 -142t-61 -130t-78.5 -95t-102.5 -37q-34 0 -60 13.5t-44 37t-27 55.5t-9 69q0 53 13 103.5t33.5 96t45.5 85t49 70.5t44.5 53t31.5 32h-23q-53 0 -102 -8.5t-86.5 -27t-60 -49t-22.5 -74.5q0 -10 1.5 -19t3.5 -18
l-60 -20q0 64 29.5 109.5t82 75t125 43t157.5 13.5q-24 -24 -56 -69.5t-61.5 -105t-49.5 -128t-20 -138.5q0 -24 5.5 -48.5t17.5 -44.5t30 -33t43 -13q42 0 77.5 30t65.5 79t55.5 110.5t46.5 124.5q24 72 42 131t29 105h120q-4 -8 -18 -42.5t-32.5 -85t-39.5 -110.5
t-38 -119.5t-28.5 -113t-11.5 -90.5q0 -17 6 -25.5t15.5 -13t21.5 -5t23 -0.5l-5 -20l-152 -5q5 39 17 89.5t28 107t35.5 115.5t39.5 114t40 104t38 85h-46zM462 723l165 129l55 -132l-14 -9l-62 75l-135 -75z" />
    <glyph glyph-name="Udieresis" unicode="&#xdc;" horiz-adv-x="796" 
d="M686 610q-2 -10 -18.5 -68t-48.5 -153q-24 -70 -51 -142t-61 -130t-78.5 -95t-102.5 -37q-34 0 -60 13.5t-44 37t-27 55.5t-9 69q0 53 13 103.5t33.5 96t45.5 85t49 70.5t44.5 53t31.5 32h-23q-53 0 -102 -8.5t-86.5 -27t-60 -49t-22.5 -74.5q0 -10 1.5 -19t3.5 -18
l-60 -20q0 64 29.5 109.5t82 75t125 43t157.5 13.5q-24 -24 -56 -69.5t-61.5 -105t-49.5 -128t-20 -138.5q0 -24 5.5 -48.5t17.5 -44.5t30 -33t43 -13q42 0 77.5 30t65.5 79t55.5 110.5t46.5 124.5q24 72 42 131t29 105h120q-4 -8 -18 -42.5t-32.5 -85t-39.5 -110.5
t-38 -119.5t-28.5 -113t-11.5 -90.5q0 -17 6 -25.5t15.5 -13t21.5 -5t23 -0.5l-5 -20l-152 -5q5 39 17 89.5t28 107t35.5 115.5t39.5 114t40 104t38 85h-46zM493 711q-14 0 -25 10t-11 26q0 14 11 25t25 11q15 0 25.5 -9.5t10.5 -26.5q0 -15 -10.5 -25.5t-25.5 -10.5z
M636 711q-15 0 -25.5 10.5t-10.5 25.5q0 14 10.5 25t25.5 11t25.5 -9.5t10.5 -26.5q0 -15 -10.5 -25.5t-25.5 -10.5z" />
    <glyph glyph-name="Ugrave" unicode="&#xd9;" horiz-adv-x="796" 
d="M686 610q-2 -10 -18.5 -68t-48.5 -153q-24 -70 -51 -142t-61 -130t-78.5 -95t-102.5 -37q-34 0 -60 13.5t-44 37t-27 55.5t-9 69q0 53 13 103.5t33.5 96t45.5 85t49 70.5t44.5 53t31.5 32h-23q-53 0 -102 -8.5t-86.5 -27t-60 -49t-22.5 -74.5q0 -10 1.5 -19t3.5 -18
l-60 -20q0 64 29.5 109.5t82 75t125 43t157.5 13.5q-24 -24 -56 -69.5t-61.5 -105t-49.5 -128t-20 -138.5q0 -24 5.5 -48.5t17.5 -44.5t30 -33t43 -13q42 0 77.5 30t65.5 79t55.5 110.5t46.5 124.5q24 72 42 131t29 105h120q-4 -8 -18 -42.5t-32.5 -85t-39.5 -110.5
t-38 -119.5t-28.5 -113t-11.5 -90.5q0 -17 6 -25.5t15.5 -13t21.5 -5t23 -0.5l-5 -20l-152 -5q5 39 17 89.5t28 107t35.5 115.5t39.5 114t40 104t38 85h-46zM483 787l42 64l80 -126l-11 -14z" />
    <glyph glyph-name="Yacute" unicode="&#xdd;" horiz-adv-x="630" 
d="M496 125q-22 -71 -51.5 -129.5t-69 -100.5t-90.5 -65t-117 -23q-44 0 -73 8.5t-47 20t-27.5 24t-13.5 20.5l69 44q0 -4 -0.5 -7t-0.5 -7q0 -15 5.5 -30.5t19.5 -28.5t37.5 -21t58.5 -8q39 0 72.5 21.5t61.5 57t51.5 82t42.5 96.5t34 100.5t27 93.5l98 337h-23
q-1 -7 -7 -33t-16.5 -64.5t-25 -85.5t-33 -95t-40 -93t-46.5 -80t-52.5 -56.5t-57.5 -21.5q-27 0 -43 12.5t-25 34.5t-12 51t-5 62l-8 149q-3 59 -6 100t-10.5 66.5t-22 37t-40.5 11.5h-17l6 20l130 5q1 -5 3 -29t5 -58.5t6.5 -75t5.5 -77.5l9 -164q1 -43 8.5 -69t36.5 -26
q31 0 61 34t57 85.5t49.5 113t39 116.5t26.5 95t12 50h102zM367 725l170 124l15 -61l-175 -77z" />
    <glyph glyph-name="Ydieresis" unicode="&#x178;" horiz-adv-x="630" 
d="M496 125q-22 -71 -51.5 -129.5t-69 -100.5t-90.5 -65t-117 -23q-44 0 -73 8.5t-47 20t-27.5 24t-13.5 20.5l69 44q0 -4 -0.5 -7t-0.5 -7q0 -15 5.5 -30.5t19.5 -28.5t37.5 -21t58.5 -8q39 0 72.5 21.5t61.5 57t51.5 82t42.5 96.5t34 100.5t27 93.5l98 337h-23
q-1 -7 -7 -33t-16.5 -64.5t-25 -85.5t-33 -95t-40 -93t-46.5 -80t-52.5 -56.5t-57.5 -21.5q-27 0 -43 12.5t-25 34.5t-12 51t-5 62l-8 149q-3 59 -6 100t-10.5 66.5t-22 37t-40.5 11.5h-17l6 20l130 5q1 -5 3 -29t5 -58.5t6.5 -75t5.5 -77.5l9 -164q1 -43 8.5 -69t36.5 -26
q31 0 61 34t57 85.5t49.5 113t39 116.5t26.5 95t12 50h102zM340 711q-14 0 -25 10t-11 26q0 14 11 25t25 11q15 0 25.5 -9.5t10.5 -26.5q0 -15 -10.5 -25.5t-25.5 -10.5zM483 711q-15 0 -25.5 10.5t-10.5 25.5q0 14 10.5 25t25.5 11t25.5 -9.5t10.5 -26.5q0 -15 -10.5 -25.5
t-25.5 -10.5z" />
    <glyph glyph-name="Zcaron" unicode="&#x17d;" 
d="M130 130q3 29 19.5 64.5t41.5 73.5t56.5 78t65 78t66 71.5t59.5 60.5q-9 0 -37.5 4t-62.5 8.5t-67.5 8t-51.5 3.5q-27 0 -53.5 -6t-49.5 -18l59 81q22 3 45 3q38 0 67.5 -5.5t58.5 -11.5q29 -7 60.5 -12.5t73.5 -5.5q22 0 48 4t46 12l-33 -59q-54 -55 -93 -100
t-66.5 -82.5t-46.5 -69t-34 -58.5q-19 -34 -30.5 -59.5t-20 -45t-15.5 -35t-16 -28.5q-2 -2 -3.5 -4.5t-3.5 -5.5q6 -2 23 -7.5t39.5 -11.5t48 -10.5t48.5 -4.5q38 0 77.5 12.5t72.5 32.5l-39 -77q-23 -11 -47.5 -17t-48.5 -6q-36 0 -72.5 6t-66.5 14t-50.5 14.5t-25.5 8.5
q-7 -5 -16.5 -12.5t-23.5 -14.5t-32.5 -11.5t-42.5 -4.5q-48 0 -81 19t-33 50q0 18 8 30t20 19.5t25.5 10.5t24.5 3q20 0 47.5 -5t54 -12t47 -13t26.5 -8q9 9 20 30t24 49t27.5 59.5t30.5 62.5q22 44 54 88t63.5 81.5t59 66t41.5 40.5q-5 0 -8.5 -0.5t-8.5 -0.5
q-4 0 -12 0.5t-12 0.5q-34 -35 -77 -85.5t-83.5 -106t-71.5 -111t-41 -101.5zM-38 52q0 -23 27 -37.5t65 -14.5q42 0 63.5 12t35.5 22q-5 2 -24.5 9.5t-43.5 16t-48.5 15.5t-39.5 7q-14 0 -24.5 -8t-10.5 -22zM300 840l15 9l61 -76l135 76l9 -13l-164 -128z" />
    <glyph glyph-name="aacute" unicode="&#xe1;" horiz-adv-x="519" 
d="M332 271q-3 -10 -13 -35.5t-26 -57t-37.5 -66t-48 -62.5t-57.5 -46.5t-65 -18.5q-37 0 -58 29t-21 73q0 31 12.5 69t33.5 76.5t49 75t59.5 65t64 45.5t63.5 17t46.5 -19.5t15.5 -55.5q0 -14 -2 -27.5t-5 -27.5l9 -2l39 124l74 8q-4 -9 -16 -40.5t-27 -80.5l-31 -100
q-6 -20 -13 -44t-13 -47.5t-10 -43t-4 -29.5q0 -9 5.5 -14.5t13.5 -5.5q19 0 43 15t50 38.5t51.5 51.5t47 54.5t37 47t21.5 28.5l-8 -25q-7 -9 -24 -31.5t-40.5 -51t-51.5 -59t-58 -55.5t-60 -41.5t-56 -16.5q-25 0 -35.5 16t-10.5 36q0 16 6 37t11 39l49 155zM71 109
q0 -13 2.5 -27t8.5 -25.5t15 -19t22 -7.5q32 0 67.5 30.5t65.5 75t49.5 93.5t19.5 87q0 35 -17 59.5t-49 24.5q-26 0 -49.5 -16t-44 -41t-37.5 -57t-28.5 -64.5t-18 -62t-6.5 -50.5zM302 560l170 124l15 -61l-175 -77z" />
    <glyph glyph-name="acircumflex" unicode="&#xe2;" horiz-adv-x="519" 
d="M332 271q-3 -10 -13 -35.5t-26 -57t-37.5 -66t-48 -62.5t-57.5 -46.5t-65 -18.5q-37 0 -58 29t-21 73q0 31 12.5 69t33.5 76.5t49 75t59.5 65t64 45.5t63.5 17t46.5 -19.5t15.5 -55.5q0 -14 -2 -27.5t-5 -27.5l9 -2l39 124l74 8q-4 -9 -16 -40.5t-27 -80.5l-31 -100
q-6 -20 -13 -44t-13 -47.5t-10 -43t-4 -29.5q0 -9 5.5 -14.5t13.5 -5.5q19 0 43 15t50 38.5t51.5 51.5t47 54.5t37 47t21.5 28.5l-8 -25q-7 -9 -24 -31.5t-40.5 -51t-51.5 -59t-58 -55.5t-60 -41.5t-56 -16.5q-25 0 -35.5 16t-10.5 36q0 16 6 37t11 39l49 155zM71 109
q0 -13 2.5 -27t8.5 -25.5t15 -19t22 -7.5q32 0 67.5 30.5t65.5 75t49.5 93.5t19.5 87q0 35 -17 59.5t-49 24.5q-26 0 -49.5 -16t-44 -41t-37.5 -57t-28.5 -64.5t-18 -62t-6.5 -50.5zM234 558l165 129l55 -132l-14 -9l-62 75l-135 -75z" />
    <glyph glyph-name="adieresis" unicode="&#xe4;" horiz-adv-x="519" 
d="M332 271q-3 -10 -13 -35.5t-26 -57t-37.5 -66t-48 -62.5t-57.5 -46.5t-65 -18.5q-37 0 -58 29t-21 73q0 31 12.5 69t33.5 76.5t49 75t59.5 65t64 45.5t63.5 17t46.5 -19.5t15.5 -55.5q0 -14 -2 -27.5t-5 -27.5l9 -2l39 124l74 8q-4 -9 -16 -40.5t-27 -80.5l-31 -100
q-6 -20 -13 -44t-13 -47.5t-10 -43t-4 -29.5q0 -9 5.5 -14.5t13.5 -5.5q19 0 43 15t50 38.5t51.5 51.5t47 54.5t37 47t21.5 28.5l-8 -25q-7 -9 -24 -31.5t-40.5 -51t-51.5 -59t-58 -55.5t-60 -41.5t-56 -16.5q-25 0 -35.5 16t-10.5 36q0 16 6 37t11 39l49 155zM71 109
q0 -13 2.5 -27t8.5 -25.5t15 -19t22 -7.5q32 0 67.5 30.5t65.5 75t49.5 93.5t19.5 87q0 35 -17 59.5t-49 24.5q-26 0 -49.5 -16t-44 -41t-37.5 -57t-28.5 -64.5t-18 -62t-6.5 -50.5zM265 546q-14 0 -25 10t-11 26q0 14 11 25t25 11q15 0 25.5 -9.5t10.5 -26.5
q0 -15 -10.5 -25.5t-25.5 -10.5zM408 546q-15 0 -25.5 10.5t-10.5 25.5q0 14 10.5 25t25.5 11t25.5 -9.5t10.5 -26.5q0 -15 -10.5 -25.5t-25.5 -10.5z" />
    <glyph glyph-name="agrave" unicode="&#xe0;" horiz-adv-x="519" 
d="M332 271q-3 -10 -13 -35.5t-26 -57t-37.5 -66t-48 -62.5t-57.5 -46.5t-65 -18.5q-37 0 -58 29t-21 73q0 31 12.5 69t33.5 76.5t49 75t59.5 65t64 45.5t63.5 17t46.5 -19.5t15.5 -55.5q0 -14 -2 -27.5t-5 -27.5l9 -2l39 124l74 8q-4 -9 -16 -40.5t-27 -80.5l-31 -100
q-6 -20 -13 -44t-13 -47.5t-10 -43t-4 -29.5q0 -9 5.5 -14.5t13.5 -5.5q19 0 43 15t50 38.5t51.5 51.5t47 54.5t37 47t21.5 28.5l-8 -25q-7 -9 -24 -31.5t-40.5 -51t-51.5 -59t-58 -55.5t-60 -41.5t-56 -16.5q-25 0 -35.5 16t-10.5 36q0 16 6 37t11 39l49 155zM71 109
q0 -13 2.5 -27t8.5 -25.5t15 -19t22 -7.5q32 0 67.5 30.5t65.5 75t49.5 93.5t19.5 87q0 35 -17 59.5t-49 24.5q-26 0 -49.5 -16t-44 -41t-37.5 -57t-28.5 -64.5t-18 -62t-6.5 -50.5zM255 622l42 64l80 -126l-11 -14z" />
    <glyph glyph-name="aring" unicode="&#xe5;" horiz-adv-x="519" 
d="M332 271q-3 -10 -13 -35.5t-26 -57t-37.5 -66t-48 -62.5t-57.5 -46.5t-65 -18.5q-37 0 -58 29t-21 73q0 31 12.5 69t33.5 76.5t49 75t59.5 65t64 45.5t63.5 17t46.5 -19.5t15.5 -55.5q0 -14 -2 -27.5t-5 -27.5l9 -2l39 124l74 8q-4 -9 -16 -40.5t-27 -80.5l-31 -100
q-6 -20 -13 -44t-13 -47.5t-10 -43t-4 -29.5q0 -9 5.5 -14.5t13.5 -5.5q19 0 43 15t50 38.5t51.5 51.5t47 54.5t37 47t21.5 28.5l-8 -25q-7 -9 -24 -31.5t-40.5 -51t-51.5 -59t-58 -55.5t-60 -41.5t-56 -16.5q-25 0 -35.5 16t-10.5 36q0 16 6 37t11 39l49 155zM71 109
q0 -13 2.5 -27t8.5 -25.5t15 -19t22 -7.5q32 0 67.5 30.5t65.5 75t49.5 93.5t19.5 87q0 35 -17 59.5t-49 24.5q-26 0 -49.5 -16t-44 -41t-37.5 -57t-28.5 -64.5t-18 -62t-6.5 -50.5zM332 531q-30 0 -51 14t-21 45q0 19 7.5 39.5t22.5 37t36.5 27t50.5 10.5q34 0 56 -14
t22 -46q0 -21 -9 -41.5t-25 -36.5t-38.5 -25.5t-50.5 -9.5zM295 590q0 -27 12 -38t29 -11q21 0 37 10t26.5 26t15.5 35t5 36q0 25 -12.5 35.5t-32.5 10.5q-19 0 -34 -10t-25 -25.5t-15.5 -34t-5.5 -34.5z" />
    <glyph glyph-name="atilde" unicode="&#xe3;" horiz-adv-x="519" 
d="M332 271q-3 -10 -13 -35.5t-26 -57t-37.5 -66t-48 -62.5t-57.5 -46.5t-65 -18.5q-37 0 -58 29t-21 73q0 31 12.5 69t33.5 76.5t49 75t59.5 65t64 45.5t63.5 17t46.5 -19.5t15.5 -55.5q0 -14 -2 -27.5t-5 -27.5l9 -2l39 124l74 8q-4 -9 -16 -40.5t-27 -80.5l-31 -100
q-6 -20 -13 -44t-13 -47.5t-10 -43t-4 -29.5q0 -9 5.5 -14.5t13.5 -5.5q19 0 43 15t50 38.5t51.5 51.5t47 54.5t37 47t21.5 28.5l-8 -25q-7 -9 -24 -31.5t-40.5 -51t-51.5 -59t-58 -55.5t-60 -41.5t-56 -16.5q-25 0 -35.5 16t-10.5 36q0 16 6 37t11 39l49 155zM71 109
q0 -13 2.5 -27t8.5 -25.5t15 -19t22 -7.5q32 0 67.5 30.5t65.5 75t49.5 93.5t19.5 87q0 35 -17 59.5t-49 24.5q-26 0 -49.5 -16t-44 -41t-37.5 -57t-28.5 -64.5t-18 -62t-6.5 -50.5zM218 553q4 9 11.5 20t18 21t24 17t30.5 7q16 0 28 -5.5t23 -12.5q11 -8 22 -13.5t25 -5.5
q10 0 18.5 4.5t15 10.5t11.5 12.5t8 10.5l13 -8q-3 -7 -9.5 -18t-16 -21.5t-23 -18t-30.5 -7.5q-13 0 -25 5.5t-24 13.5q-12 7 -24 12.5t-26 5.5q-24 0 -36.5 -12.5t-22.5 -24.5z" />
    <glyph glyph-name="ccedilla" unicode="&#xe7;" horiz-adv-x="389" 
d="M117 -14q-30 1 -50.5 10.5t-33 25t-18.5 35.5t-6 41q0 28 11 64.5t31 73.5t48 73t61.5 64t72 45t79.5 17q35 0 57 -7.5t36 -12.5l-27 -62q-5 7 -12.5 17t-18.5 19t-26.5 15t-36.5 6q-28 0 -54.5 -15t-49.5 -39t-41.5 -55t-31.5 -63t-20.5 -63t-7.5 -55q0 -16 3 -33
t12.5 -30.5t28 -22.5t49.5 -9q53 0 103 29t92 68.5t73 80t47 62.5l-9 -25q-14 -22 -45 -63t-75 -82.5t-99.5 -73t-118.5 -35.5l-14 -18q9 -6 22 -18t13 -32q0 -25 -22 -37.5t-46 -12.5q-9 0 -18 1t-18 3l4 12q3 0 6 -0.5t6 -0.5q7 0 15.5 1t15.5 4.5t12 10t5 16.5
q0 17 -12.5 24t-21.5 11z" />
    <glyph glyph-name="eacute" unicode="&#xe9;" horiz-adv-x="389" 
d="M478 235q-12 -16 -30 -40.5t-42 -52.5t-54 -56t-65 -50.5t-75.5 -36.5t-84.5 -14q-58 0 -88 29.5t-30 83.5q0 33 12 70.5t32.5 75t48.5 72t60 61t66 42.5t67 16q26 0 44.5 -16.5t18.5 -49.5q0 -27 -17 -58.5t-46 -59.5t-68 -46.5t-83 -18.5q-27 0 -56 8q-6 -20 -10 -40
t-4 -40q0 -48 24 -68.5t67 -20.5q56 0 107.5 29t93.5 68t73 78t47 60zM263 415q-31 0 -58 -23.5t-49 -54t-36.5 -60.5t-19.5 -42q4 -3 12.5 -7.5t20 -9.5t25.5 -8.5t29 -3.5q24 0 45.5 14.5t37 37t24.5 50.5t9 54q0 20 -10 36.5t-30 16.5zM237 560l170 124l15 -61l-175 -77z
" />
    <glyph glyph-name="ecircumflex" unicode="&#xea;" horiz-adv-x="389" 
d="M478 235q-12 -16 -30 -40.5t-42 -52.5t-54 -56t-65 -50.5t-75.5 -36.5t-84.5 -14q-58 0 -88 29.5t-30 83.5q0 33 12 70.5t32.5 75t48.5 72t60 61t66 42.5t67 16q26 0 44.5 -16.5t18.5 -49.5q0 -27 -17 -58.5t-46 -59.5t-68 -46.5t-83 -18.5q-27 0 -56 8q-6 -20 -10 -40
t-4 -40q0 -48 24 -68.5t67 -20.5q56 0 107.5 29t93.5 68t73 78t47 60zM263 415q-31 0 -58 -23.5t-49 -54t-36.5 -60.5t-19.5 -42q4 -3 12.5 -7.5t20 -9.5t25.5 -8.5t29 -3.5q24 0 45.5 14.5t37 37t24.5 50.5t9 54q0 20 -10 36.5t-30 16.5zM179 558l165 129l55 -132l-14 -9
l-62 75l-135 -75z" />
    <glyph glyph-name="edieresis" unicode="&#xeb;" horiz-adv-x="389" 
d="M478 235q-12 -16 -30 -40.5t-42 -52.5t-54 -56t-65 -50.5t-75.5 -36.5t-84.5 -14q-58 0 -88 29.5t-30 83.5q0 33 12 70.5t32.5 75t48.5 72t60 61t66 42.5t67 16q26 0 44.5 -16.5t18.5 -49.5q0 -27 -17 -58.5t-46 -59.5t-68 -46.5t-83 -18.5q-27 0 -56 8q-6 -20 -10 -40
t-4 -40q0 -48 24 -68.5t67 -20.5q56 0 107.5 29t93.5 68t73 78t47 60zM263 415q-31 0 -58 -23.5t-49 -54t-36.5 -60.5t-19.5 -42q4 -3 12.5 -7.5t20 -9.5t25.5 -8.5t29 -3.5q24 0 45.5 14.5t37 37t24.5 50.5t9 54q0 20 -10 36.5t-30 16.5zM210 546q-14 0 -25 10t-11 26
q0 14 11 25t25 11q15 0 25.5 -9.5t10.5 -26.5q0 -15 -10.5 -25.5t-25.5 -10.5zM353 546q-15 0 -25.5 10.5t-10.5 25.5q0 14 10.5 25t25.5 11t25.5 -9.5t10.5 -26.5q0 -15 -10.5 -25.5t-25.5 -10.5z" />
    <glyph glyph-name="egrave" unicode="&#xe8;" horiz-adv-x="389" 
d="M478 235q-12 -16 -30 -40.5t-42 -52.5t-54 -56t-65 -50.5t-75.5 -36.5t-84.5 -14q-58 0 -88 29.5t-30 83.5q0 33 12 70.5t32.5 75t48.5 72t60 61t66 42.5t67 16q26 0 44.5 -16.5t18.5 -49.5q0 -27 -17 -58.5t-46 -59.5t-68 -46.5t-83 -18.5q-27 0 -56 8q-6 -20 -10 -40
t-4 -40q0 -48 24 -68.5t67 -20.5q56 0 107.5 29t93.5 68t73 78t47 60zM263 415q-31 0 -58 -23.5t-49 -54t-36.5 -60.5t-19.5 -42q4 -3 12.5 -7.5t20 -9.5t25.5 -8.5t29 -3.5q24 0 45.5 14.5t37 37t24.5 50.5t9 54q0 20 -10 36.5t-30 16.5zM190 622l42 64l80 -126l-11 -14z
" />
    <glyph glyph-name="iacute" unicode="&#xed;" horiz-adv-x="241" 
d="M336 235q-6 -8 -21.5 -30t-37.5 -49.5t-49 -57.5t-55 -55.5t-56.5 -41.5t-52.5 -16q-26 0 -38 18t-12 37q0 12 6.5 34.5t12.5 41.5l38 119q13 45 23 80.5t10 55.5q0 17 -10 27t-39 10h-22l5 15l157 12l-76 -239q-5 -16 -11.5 -36.5t-11.5 -40t-8.5 -35.5t-3.5 -23
q0 -13 4 -22t16 -9q18 0 41 14.5t47.5 37t49 50t45.5 53t36 46t21 29.5zM133 560l170 124l15 -61l-175 -77z" />
    <glyph glyph-name="icircumflex" unicode="&#xee;" horiz-adv-x="241" 
d="M336 235q-6 -8 -21.5 -30t-37.5 -49.5t-49 -57.5t-55 -55.5t-56.5 -41.5t-52.5 -16q-26 0 -38 18t-12 37q0 12 6.5 34.5t12.5 41.5l38 119q13 45 23 80.5t10 55.5q0 17 -10 27t-39 10h-22l5 15l157 12l-76 -239q-5 -16 -11.5 -36.5t-11.5 -40t-8.5 -35.5t-3.5 -23
q0 -13 4 -22t16 -9q18 0 41 14.5t47.5 37t49 50t45.5 53t36 46t21 29.5zM70 558l165 129l55 -132l-14 -9l-62 75l-135 -75z" />
    <glyph glyph-name="idieresis" unicode="&#xef;" horiz-adv-x="241" 
d="M336 235q-6 -8 -21.5 -30t-37.5 -49.5t-49 -57.5t-55 -55.5t-56.5 -41.5t-52.5 -16q-26 0 -38 18t-12 37q0 12 6.5 34.5t12.5 41.5l38 119q13 45 23 80.5t10 55.5q0 17 -10 27t-39 10h-22l5 15l157 12l-76 -239q-5 -16 -11.5 -36.5t-11.5 -40t-8.5 -35.5t-3.5 -23
q0 -13 4 -22t16 -9q18 0 41 14.5t47.5 37t49 50t45.5 53t36 46t21 29.5zM126 546q-14 0 -25 10t-11 26q0 14 11 25t25 11q15 0 25.5 -9.5t10.5 -26.5q0 -15 -10.5 -25.5t-25.5 -10.5zM269 546q-15 0 -25.5 10.5t-10.5 25.5q0 14 10.5 25t25.5 11t25.5 -9.5t10.5 -26.5
q0 -15 -10.5 -25.5t-25.5 -10.5z" />
    <glyph glyph-name="igrave" unicode="&#xec;" horiz-adv-x="241" 
d="M336 235q-6 -8 -21.5 -30t-37.5 -49.5t-49 -57.5t-55 -55.5t-56.5 -41.5t-52.5 -16q-26 0 -38 18t-12 37q0 12 6.5 34.5t12.5 41.5l38 119q13 45 23 80.5t10 55.5q0 17 -10 27t-39 10h-22l5 15l157 12l-76 -239q-5 -16 -11.5 -36.5t-11.5 -40t-8.5 -35.5t-3.5 -23
q0 -13 4 -22t16 -9q18 0 41 14.5t47.5 37t49 50t45.5 53t36 46t21 29.5zM116 622l42 64l80 -126l-11 -14z" />
    <glyph glyph-name="ntilde" unicode="&#xf1;" 
d="M88 250q3 9 8 26t10 36t8.5 36.5t3.5 28.5q0 30 -48 30h-19l5 15l151 13l-133 -430h10q6 17 20.5 55.5t35.5 86t49 99t60.5 93.5t69.5 69t77 27q26 0 41.5 -17t15.5 -38q0 -25 -7 -48l-14 -46l-41 -129q-11 -32 -17 -62.5t-6 -41.5q0 -9 5.5 -16t14.5 -7q15 0 36.5 14
t46 36.5t49.5 49.5t47 52.5t38.5 46.5t23.5 31l-8 -25q-8 -10 -25 -33t-40.5 -50.5t-52 -57t-57.5 -54t-57 -40t-52 -15.5q-17 0 -28 13.5t-11 30.5q0 9 3 24.5t8 33t11 36t11 34.5l29 93q9 31 18.5 64.5t9.5 49.5q0 11 -6 23.5t-25 12.5q-28 0 -57 -27t-57 -68t-53 -90.5
t-45 -93.5t-32.5 -77.5t-15.5 -43.5l-91 -15zM227 553q4 9 11.5 20t18 21t24 17t30.5 7q16 0 28 -5.5t23 -12.5q11 -8 22 -13.5t25 -5.5q10 0 18.5 4.5t15 10.5t11.5 12.5t8 10.5l13 -8q-3 -7 -9.5 -18t-16 -21.5t-23 -18t-30.5 -7.5q-13 0 -25 5.5t-24 13.5q-12 7 -24 12.5
t-26 5.5q-24 0 -36.5 -12.5t-22.5 -24.5z" />
    <glyph glyph-name="oacute" unicode="&#xf3;" horiz-adv-x="463" 
d="M552 240q-6 -8 -20.5 -29t-36 -47.5t-49 -55.5t-58.5 -53t-64.5 -39.5t-66.5 -15.5q-15 0 -30 4t-28 9q-9 -5 -34.5 -16.5t-61.5 -11.5q-46 0 -69.5 29t-23.5 80q0 33 12 71t32.5 76t49.5 73t62.5 62t71 43t75.5 16q47 0 71.5 -27.5t24.5 -72.5q0 -50 -22 -99.5
t-52.5 -91.5t-62 -73t-50.5 -44q9 -3 18.5 -5t18.5 -2q33 0 66 14.5t63.5 38t57.5 51.5t49.5 55.5t39 50.5t25.5 35zM236 403q-24 -11 -53 -39t-54 -67t-42 -87t-17 -100q0 -39 17 -64.5t62 -25.5q8 0 16 1.5t16 3.5q-11 9 -20 19.5t-16.5 25t-11.5 34t-4 47.5q0 46 9 84.5
t24.5 69.5t35 53.5t40.5 37.5zM144 171q0 -56 17.5 -87t42.5 -48q13 10 36 35.5t45 62t38 81t16 92.5q0 38 -15.5 65.5t-47.5 27.5q-29 0 -53 -23.5t-41.5 -58t-27.5 -74.5t-10 -73zM254 560l170 124l15 -61l-175 -77z" />
    <glyph glyph-name="ocircumflex" unicode="&#xf4;" horiz-adv-x="463" 
d="M552 240q-6 -8 -20.5 -29t-36 -47.5t-49 -55.5t-58.5 -53t-64.5 -39.5t-66.5 -15.5q-15 0 -30 4t-28 9q-9 -5 -34.5 -16.5t-61.5 -11.5q-46 0 -69.5 29t-23.5 80q0 33 12 71t32.5 76t49.5 73t62.5 62t71 43t75.5 16q47 0 71.5 -27.5t24.5 -72.5q0 -50 -22 -99.5
t-52.5 -91.5t-62 -73t-50.5 -44q9 -3 18.5 -5t18.5 -2q33 0 66 14.5t63.5 38t57.5 51.5t49.5 55.5t39 50.5t25.5 35zM236 403q-24 -11 -53 -39t-54 -67t-42 -87t-17 -100q0 -39 17 -64.5t62 -25.5q8 0 16 1.5t16 3.5q-11 9 -20 19.5t-16.5 25t-11.5 34t-4 47.5q0 46 9 84.5
t24.5 69.5t35 53.5t40.5 37.5zM144 171q0 -56 17.5 -87t42.5 -48q13 10 36 35.5t45 62t38 81t16 92.5q0 38 -15.5 65.5t-47.5 27.5q-29 0 -53 -23.5t-41.5 -58t-27.5 -74.5t-10 -73zM196 558l165 129l55 -132l-14 -9l-62 75l-135 -75z" />
    <glyph glyph-name="odieresis" unicode="&#xf6;" horiz-adv-x="463" 
d="M552 240q-6 -8 -20.5 -29t-36 -47.5t-49 -55.5t-58.5 -53t-64.5 -39.5t-66.5 -15.5q-15 0 -30 4t-28 9q-9 -5 -34.5 -16.5t-61.5 -11.5q-46 0 -69.5 29t-23.5 80q0 33 12 71t32.5 76t49.5 73t62.5 62t71 43t75.5 16q47 0 71.5 -27.5t24.5 -72.5q0 -50 -22 -99.5
t-52.5 -91.5t-62 -73t-50.5 -44q9 -3 18.5 -5t18.5 -2q33 0 66 14.5t63.5 38t57.5 51.5t49.5 55.5t39 50.5t25.5 35zM236 403q-24 -11 -53 -39t-54 -67t-42 -87t-17 -100q0 -39 17 -64.5t62 -25.5q8 0 16 1.5t16 3.5q-11 9 -20 19.5t-16.5 25t-11.5 34t-4 47.5q0 46 9 84.5
t24.5 69.5t35 53.5t40.5 37.5zM144 171q0 -56 17.5 -87t42.5 -48q13 10 36 35.5t45 62t38 81t16 92.5q0 38 -15.5 65.5t-47.5 27.5q-29 0 -53 -23.5t-41.5 -58t-27.5 -74.5t-10 -73zM247 546q-14 0 -25 10t-11 26q0 14 11 25t25 11q15 0 25.5 -9.5t10.5 -26.5
q0 -15 -10.5 -25.5t-25.5 -10.5zM390 546q-15 0 -25.5 10.5t-10.5 25.5q0 14 10.5 25t25.5 11t25.5 -9.5t10.5 -26.5q0 -15 -10.5 -25.5t-25.5 -10.5z" />
    <glyph glyph-name="ograve" unicode="&#xf2;" horiz-adv-x="463" 
d="M552 240q-6 -8 -20.5 -29t-36 -47.5t-49 -55.5t-58.5 -53t-64.5 -39.5t-66.5 -15.5q-15 0 -30 4t-28 9q-9 -5 -34.5 -16.5t-61.5 -11.5q-46 0 -69.5 29t-23.5 80q0 33 12 71t32.5 76t49.5 73t62.5 62t71 43t75.5 16q47 0 71.5 -27.5t24.5 -72.5q0 -50 -22 -99.5
t-52.5 -91.5t-62 -73t-50.5 -44q9 -3 18.5 -5t18.5 -2q33 0 66 14.5t63.5 38t57.5 51.5t49.5 55.5t39 50.5t25.5 35zM236 403q-24 -11 -53 -39t-54 -67t-42 -87t-17 -100q0 -39 17 -64.5t62 -25.5q8 0 16 1.5t16 3.5q-11 9 -20 19.5t-16.5 25t-11.5 34t-4 47.5q0 46 9 84.5
t24.5 69.5t35 53.5t40.5 37.5zM144 171q0 -56 17.5 -87t42.5 -48q13 10 36 35.5t45 62t38 81t16 92.5q0 38 -15.5 65.5t-47.5 27.5q-29 0 -53 -23.5t-41.5 -58t-27.5 -74.5t-10 -73zM227 622l42 64l80 -126l-11 -14z" />
    <glyph glyph-name="otilde" unicode="&#xf5;" horiz-adv-x="463" 
d="M552 240q-6 -8 -20.5 -29t-36 -47.5t-49 -55.5t-58.5 -53t-64.5 -39.5t-66.5 -15.5q-15 0 -30 4t-28 9q-9 -5 -34.5 -16.5t-61.5 -11.5q-46 0 -69.5 29t-23.5 80q0 33 12 71t32.5 76t49.5 73t62.5 62t71 43t75.5 16q47 0 71.5 -27.5t24.5 -72.5q0 -50 -22 -99.5
t-52.5 -91.5t-62 -73t-50.5 -44q9 -3 18.5 -5t18.5 -2q33 0 66 14.5t63.5 38t57.5 51.5t49.5 55.5t39 50.5t25.5 35zM236 403q-24 -11 -53 -39t-54 -67t-42 -87t-17 -100q0 -39 17 -64.5t62 -25.5q8 0 16 1.5t16 3.5q-11 9 -20 19.5t-16.5 25t-11.5 34t-4 47.5q0 46 9 84.5
t24.5 69.5t35 53.5t40.5 37.5zM144 171q0 -56 17.5 -87t42.5 -48q13 10 36 35.5t45 62t38 81t16 92.5q0 38 -15.5 65.5t-47.5 27.5q-29 0 -53 -23.5t-41.5 -58t-27.5 -74.5t-10 -73zM190 553q4 9 11.5 20t18 21t24 17t30.5 7q16 0 28 -5.5t23 -12.5q11 -8 22 -13.5t25 -5.5
q10 0 18.5 4.5t15 10.5t11.5 12.5t8 10.5l13 -8q-3 -7 -9.5 -18t-16 -21.5t-23 -18t-30.5 -7.5q-13 0 -25 5.5t-24 13.5q-12 7 -24 12.5t-26 5.5q-24 0 -36.5 -12.5t-22.5 -24.5z" />
    <glyph glyph-name="scaron" unicode="&#x161;" horiz-adv-x="426" 
d="M518 240q-5 -8 -19.5 -28.5t-35.5 -46t-47 -53.5t-54.5 -50.5t-58.5 -37.5t-58 -15q-5 0 -10 0.5t-10 0.5q-19 -11 -40 -18t-43 -7q-27 0 -54 9.5t-48 27.5t-34 44.5t-13 61.5q0 32 10 55t25.5 39.5t33.5 27.5t33 18l54 -32q-21 -3 -41 -12t-35.5 -24t-25 -36.5
t-9.5 -48.5q0 -25 9 -46t24.5 -36.5t36.5 -24t44 -8.5q39 0 63.5 25t24.5 66q0 36 -12 68t-27 61q-14 29 -26.5 58t-12.5 58q0 19 7.5 36.5t22 31.5t34.5 22.5t45 8.5q19 0 33.5 -4.5t25.5 -10.5t19 -13t13 -12l-32 -55q-1 7 -4.5 20.5t-11.5 26.5t-21 23t-33 10
q-23 0 -35.5 -15.5t-12.5 -34.5q0 -25 13.5 -54.5t30.5 -62.5q17 -32 30.5 -66t13.5 -67q0 -30 -15 -51.5t-29 -33.5q4 0 7.5 -0.5t7.5 -0.5q22 0 47.5 15t52 38t52.5 51t47 53.5t36 45.5l21 28zM234 675l15 9l61 -76l135 76l9 -13l-164 -128z" />
    <glyph glyph-name="uacute" unicode="&#xfa;" horiz-adv-x="519" 
d="M398 415l-2 2q-2 -9 -15 -44.5t-33.5 -83.5t-49 -101.5t-63 -98.5t-73.5 -74.5t-82 -29.5q-17 0 -28.5 6t-18.5 14.5t-9.5 18.5t-2.5 19q0 11 2.5 26t6 31t8 31t7.5 26l29 93q3 9 8 25t10 33.5t8.5 34t3.5 27.5q0 21 -11.5 29t-36.5 8h-19l5 15l151 13l-95 -309
q-5 -17 -11 -38.5t-6 -32.5q0 -10 8.5 -22.5t26.5 -12.5q31 0 63 27.5t61 69.5t54.5 92t45 95t31.5 77.5t14 40.5l80 13l-76 -239q-5 -16 -11.5 -36.5t-11.5 -40t-8.5 -35.5t-3.5 -23q0 -13 4 -22t16 -9q18 0 41 14.5t47.5 37t49 50t45.5 53t36 46t21 29.5l-8 -25
q-6 -8 -21.5 -30t-37.5 -49.5t-49 -57.5t-55 -55.5t-56.5 -41.5t-52.5 -16q-26 0 -38 18t-12 37q0 12 6.5 34.5t12.5 41.5zM272 560l170 124l15 -61l-175 -77z" />
    <glyph glyph-name="ucircumflex" unicode="&#xfb;" horiz-adv-x="519" 
d="M398 415l-2 2q-2 -9 -15 -44.5t-33.5 -83.5t-49 -101.5t-63 -98.5t-73.5 -74.5t-82 -29.5q-17 0 -28.5 6t-18.5 14.5t-9.5 18.5t-2.5 19q0 11 2.5 26t6 31t8 31t7.5 26l29 93q3 9 8 25t10 33.5t8.5 34t3.5 27.5q0 21 -11.5 29t-36.5 8h-19l5 15l151 13l-95 -309
q-5 -17 -11 -38.5t-6 -32.5q0 -10 8.5 -22.5t26.5 -12.5q31 0 63 27.5t61 69.5t54.5 92t45 95t31.5 77.5t14 40.5l80 13l-76 -239q-5 -16 -11.5 -36.5t-11.5 -40t-8.5 -35.5t-3.5 -23q0 -13 4 -22t16 -9q18 0 41 14.5t47.5 37t49 50t45.5 53t36 46t21 29.5l-8 -25
q-6 -8 -21.5 -30t-37.5 -49.5t-49 -57.5t-55 -55.5t-56.5 -41.5t-52.5 -16q-26 0 -38 18t-12 37q0 12 6.5 34.5t12.5 41.5zM214 558l165 129l55 -132l-14 -9l-62 75l-135 -75z" />
    <glyph glyph-name="udieresis" unicode="&#xfc;" horiz-adv-x="519" 
d="M398 415l-2 2q-2 -9 -15 -44.5t-33.5 -83.5t-49 -101.5t-63 -98.5t-73.5 -74.5t-82 -29.5q-17 0 -28.5 6t-18.5 14.5t-9.5 18.5t-2.5 19q0 11 2.5 26t6 31t8 31t7.5 26l29 93q3 9 8 25t10 33.5t8.5 34t3.5 27.5q0 21 -11.5 29t-36.5 8h-19l5 15l151 13l-95 -309
q-5 -17 -11 -38.5t-6 -32.5q0 -10 8.5 -22.5t26.5 -12.5q31 0 63 27.5t61 69.5t54.5 92t45 95t31.5 77.5t14 40.5l80 13l-76 -239q-5 -16 -11.5 -36.5t-11.5 -40t-8.5 -35.5t-3.5 -23q0 -13 4 -22t16 -9q18 0 41 14.5t47.5 37t49 50t45.5 53t36 46t21 29.5l-8 -25
q-6 -8 -21.5 -30t-37.5 -49.5t-49 -57.5t-55 -55.5t-56.5 -41.5t-52.5 -16q-26 0 -38 18t-12 37q0 12 6.5 34.5t12.5 41.5zM265 546q-14 0 -25 10t-11 26q0 14 11 25t25 11q15 0 25.5 -9.5t10.5 -26.5q0 -15 -10.5 -25.5t-25.5 -10.5zM408 546q-15 0 -25.5 10.5t-10.5 25.5
q0 14 10.5 25t25.5 11t25.5 -9.5t10.5 -26.5q0 -15 -10.5 -25.5t-25.5 -10.5z" />
    <glyph glyph-name="ugrave" unicode="&#xf9;" horiz-adv-x="519" 
d="M398 415l-2 2q-2 -9 -15 -44.5t-33.5 -83.5t-49 -101.5t-63 -98.5t-73.5 -74.5t-82 -29.5q-17 0 -28.5 6t-18.5 14.5t-9.5 18.5t-2.5 19q0 11 2.5 26t6 31t8 31t7.5 26l29 93q3 9 8 25t10 33.5t8.5 34t3.5 27.5q0 21 -11.5 29t-36.5 8h-19l5 15l151 13l-95 -309
q-5 -17 -11 -38.5t-6 -32.5q0 -10 8.5 -22.5t26.5 -12.5q31 0 63 27.5t61 69.5t54.5 92t45 95t31.5 77.5t14 40.5l80 13l-76 -239q-5 -16 -11.5 -36.5t-11.5 -40t-8.5 -35.5t-3.5 -23q0 -13 4 -22t16 -9q18 0 41 14.5t47.5 37t49 50t45.5 53t36 46t21 29.5l-8 -25
q-6 -8 -21.5 -30t-37.5 -49.5t-49 -57.5t-55 -55.5t-56.5 -41.5t-52.5 -16q-26 0 -38 18t-12 37q0 12 6.5 34.5t12.5 41.5zM240 622l42 64l80 -126l-11 -14z" />
    <glyph glyph-name="yacute" unicode="&#xfd;" 
d="M632 240q-16 -24 -48 -65t-72 -81.5t-84 -71t-83 -34.5q-8 -23 -23 -62.5t-45 -77.5t-80 -65.5t-127 -27.5q-72 0 -115 29t-43 74q0 26 12.5 48t32 40t43.5 32.5t46.5 24.5t40.5 16.5t26 9.5q-4 11 -8.5 31t-6.5 60l-8 179q-2 42 -6 64t-13 32t-23.5 12t-37.5 3l5 20
l126 5q3 -17 4 -34.5t2 -34.5l8 -179q1 -34 2.5 -62t5.5 -48t11 -31t19 -11q19 0 41 27t43 68t41 90t36 92.5t26 74.5t12 38l93 10l-130 -415q44 6 86.5 35.5t80 67t68 77t50.5 65.5zM402 417q-3 -10 -14.5 -46t-29 -84t-39.5 -101.5t-47 -98t-52.5 -73.5t-54.5 -29
q-22 0 -32.5 12.5t-14.5 20.5q-18 -7 -44 -19.5t-50 -31t-40.5 -42.5t-16.5 -54q0 -42 37 -69t95 -27q39 0 67.5 15.5t50 44.5t38 70.5t32.5 94.5l126 417h-11zM236 560l170 124l15 -61l-175 -77z" />
    <glyph glyph-name="ydieresis" unicode="&#xff;" 
d="M632 240q-16 -24 -48 -65t-72 -81.5t-84 -71t-83 -34.5q-8 -23 -23 -62.5t-45 -77.5t-80 -65.5t-127 -27.5q-72 0 -115 29t-43 74q0 26 12.5 48t32 40t43.5 32.5t46.5 24.5t40.5 16.5t26 9.5q-4 11 -8.5 31t-6.5 60l-8 179q-2 42 -6 64t-13 32t-23.5 12t-37.5 3l5 20
l126 5q3 -17 4 -34.5t2 -34.5l8 -179q1 -34 2.5 -62t5.5 -48t11 -31t19 -11q19 0 41 27t43 68t41 90t36 92.5t26 74.5t12 38l93 10l-130 -415q44 6 86.5 35.5t80 67t68 77t50.5 65.5zM402 417q-3 -10 -14.5 -46t-29 -84t-39.5 -101.5t-47 -98t-52.5 -73.5t-54.5 -29
q-22 0 -32.5 12.5t-14.5 20.5q-18 -7 -44 -19.5t-50 -31t-40.5 -42.5t-16.5 -54q0 -42 37 -69t95 -27q39 0 67.5 15.5t50 44.5t38 70.5t32.5 94.5l126 417h-11zM214 546q-14 0 -25 10t-11 26q0 14 11 25t25 11q15 0 25.5 -9.5t10.5 -26.5q0 -15 -10.5 -25.5t-25.5 -10.5z
M357 546q-15 0 -25.5 10.5t-10.5 25.5q0 14 10.5 25t25.5 11t25.5 -9.5t10.5 -26.5q0 -15 -10.5 -25.5t-25.5 -10.5z" />
    <glyph glyph-name="zcaron" unicode="&#x17e;" horiz-adv-x="444" 
d="M58 49l338 328l-2 2q-6 -1 -24 -5t-41 -8t-48.5 -7t-46.5 -3q-25 0 -39.5 1.5t-28.5 11.5q-16 -30 -35 -63t-42 -66l8 25q23 43 38.5 82t27.5 92q10 -10 25 -21.5t47 -11.5q31 0 61.5 3t58 7.5t50 9.5t36.5 9l-16 -49l-291 -331h90q30 0 53.5 0.5t41.5 2.5t32.5 4.5
t27.5 7.5l-29 -73q-23 2 -45 2.5t-44 0.5h-227zM233 675l15 9l61 -76l135 76l9 -13l-164 -128z" />
    <glyph glyph-name="afii10017" unicode="&#x410;" horiz-adv-x="796" 
d="M354 205q-17 -31 -40 -69t-53.5 -71.5t-71 -56.5t-92.5 -23q-35 0 -61.5 10.5t-44 26.5t-26.5 36t-9 40q0 55 31.5 89t82.5 53.5t115.5 26.5t131.5 7h47q31 48 61.5 93.5t63 89t69 84.5t80.5 81l109 25q-8 -18 -23 -57.5t-29 -91t-24.5 -110.5t-10.5 -116
q0 -74 13 -115.5t25 -60.5l-25 -24q-11 25 -22 64.5t-11 110.5q0 59 10 117.5t23.5 109.5t27 91.5t21.5 62.5l-33 -6q-9 -27 -23.5 -74.5t-28 -105.5t-23 -121.5t-9.5 -121.5q0 -62 5 -98t17 -55t31.5 -24t47.5 -6l-5 -16l-137 -4q-5 16 -8.5 38t-6 45t-3.5 45t-1 38
q0 23 1 46t3 46h-168zM298 254q-20 0 -49 -1t-61.5 -5.5t-65 -13t-58.5 -24t-42 -39t-16 -57.5q0 -25 9.5 -44.5t25 -32.5t36.5 -20t44 -7q38 0 67 16.5t53.5 45t46 66t44.5 80.5l19 36h-53zM550 274q4 39 12 80.5t18 82.5t22 80.5t24 72.5l-2 2q-70 -80 -128.5 -159
t-103.5 -159h158z" />
    <glyph glyph-name="afii10019" unicode="&#x412;" horiz-adv-x="778" 
d="M349 129q0 -36 9.5 -60.5t26 -40t38.5 -22t48 -6.5q35 0 62.5 12.5t46 34t28.5 50.5t10 61q0 38 -12 66.5t-31 48t-43 32t-47 19.5t-43.5 9.5t-32.5 2.5q-6 0 -12 -0.5t-11 -1.5q-3 -10 -9.5 -32.5t-12.5 -51t-10.5 -60.5t-4.5 -61zM471 -15q-69 0 -105.5 34t-36.5 113
q0 30 7 72.5t19.5 89t29 93t35.5 82.5q48 91 105.5 131t112.5 40q19 0 37.5 -6.5t32.5 -19.5t23 -32.5t9 -45.5q0 -48 -27 -82t-65.5 -57t-82 -36.5t-76.5 -19.5v-2q34 -6 69 -19t64 -34t47.5 -51t18.5 -71q0 -34 -16 -66t-45 -57t-69 -40.5t-87 -15.5zM391 354q22 -3 45 -3
q49 0 93 15.5t76 41.5t51 59.5t19 70.5q0 29 -17 50.5t-52 21.5q-47 0 -87.5 -36.5t-78.5 -103.5q-9 -14 -17.5 -33t-15 -37t-11 -31t-5.5 -15zM193 -10q4 34 16 84t28 107t36 118t40 117.5t38.5 103.5t33.5 78q-8 1 -15.5 1.5t-15.5 0.5q-48 0 -92.5 -9.5t-79 -28.5
t-55 -48t-20.5 -68q0 -11 4 -21t6 -21l-60 -20q5 68 33 113t77.5 72.5t120 40t160.5 15.5q-24 -59 -51.5 -132t-52.5 -151.5t-44.5 -157t-26.5 -147.5q12 -11 24 -17.5t39 -19.5z" />
    <glyph glyph-name="afii10020" unicode="&#x413;" horiz-adv-x="630" 
d="M324 -11q-11 41 -11 83q0 39 9.5 89.5t24 104t32 107t33.5 98.5t29 78t18 46q-20 5 -40 7.5t-41 2.5q-59 0 -107.5 -10t-84 -30t-55 -50t-19.5 -70q0 -11 3 -20.5t7 -19.5l-60 -20q4 57 27 101.5t70.5 75.5t122 47t179.5 16q55 0 110 -3t111 -3q29 0 49.5 1.5t35.5 4
t24.5 5.5t17.5 5q-5 -6 -13 -15t-16.5 -19t-16 -19t-11.5 -13h-10q-78 0 -142 8t-125 15q-11 -22 -23 -55t-25 -70.5t-25.5 -77t-23.5 -74.5q-3 -8 -9.5 -28.5t-12.5 -49.5t-10.5 -66t-4.5 -79q0 -24 4.5 -47t18.5 -49zM176 -100q3 42 14.5 99t28.5 121t38 131t41.5 129
t39 115t32.5 89h55q-16 -41 -35 -94.5t-38.5 -112t-38 -119.5t-33 -117.5t-23 -106.5t-8.5 -86q0 -5 0.5 -10.5t1.5 -12.5z" />
    <glyph glyph-name="afii10022" unicode="&#x415;" horiz-adv-x="685" 
d="M573 1q-29 -6 -58 -6q-77 0 -123 12.5t-66 22.5q0 11 -1 19.5t-1 19.5q0 47 9 101t23.5 108.5t31.5 106t33 94t29 73t19 43.5q-23 5 -45.5 7.5t-45.5 2.5q-59 0 -107.5 -10t-84 -30t-55 -50t-19.5 -70q0 -11 3 -20.5t7 -19.5l-60 -20q4 57 27 101.5t70.5 75.5t122 47
t179.5 16q55 0 110 -3t111 -3q29 0 49.5 1.5t35.5 4t24.5 5.5t17.5 5q-5 -6 -13 -15t-16.5 -19t-16 -19t-11.5 -13h-10q-75 0 -136.5 8t-120.5 15q-11 -21 -24 -51t-25 -63t-23 -65t-19 -57h192l-34 -35q-28 9 -52.5 12t-62.5 3h-50q-1 -5 -6.5 -24.5t-11.5 -48.5
t-10.5 -65.5t-4.5 -75.5q0 -14 1.5 -28.5t3.5 -28.5q14 -5 51 -15t102 -10q29 0 58.5 4.5t57.5 14.5zM193 -10q3 36 14.5 85.5t28 105t35.5 114t38.5 112t37 99.5t30.5 78h55q-20 -53 -44.5 -121t-48 -142t-42 -148.5t-25.5 -140.5q13 -11 22 -16t29 -16z" />
    <glyph glyph-name="afii10026" unicode="&#x418;" horiz-adv-x="788" 
d="M274 335q13 40 27 78t27.5 72.5t26 63t22.5 49.5q-8 1 -15.5 1.5t-15.5 0.5q-48 0 -92.5 -9.5t-79 -28.5t-55 -48t-20.5 -68q0 -11 4 -21t6 -21l-60 -20q5 68 33 113t77.5 72.5t120 40t160.5 15.5q-25 -61 -54 -137.5t-58 -167.5q-23 -74 -38.5 -146.5t-24.5 -136.5
q-2 -11 -2 -19.5t-1 -17.5l-78 -10q3 27 10.5 64t19 80.5t25.5 90.5t30 95zM377 320q-5 -18 -12 -50.5t-14 -67.5q41 50 88.5 106.5t97 111.5t98.5 106t93 91l6 8l36 5q-17 -29 -38 -81t-39 -118t-30.5 -142.5t-12.5 -154.5q0 -63 16 -88.5t60 -25.5h17l-5 -20l-151 -10
q-7 23 -9.5 46.5t-2.5 47.5q0 71 9.5 140.5t23 130.5t29 108.5t28.5 74.5q-45 -46 -91.5 -100.5t-90 -111.5t-81 -112t-64.5 -101q-1 -8 -1.5 -15.5t-0.5 -12.5q0 -14 5.5 -39.5t19.5 -45.5l-40 -10q-10 29 -10 59q0 37 6.5 79.5t15 83t17.5 73.5t14 50q8 27 21.5 66t29 80
t31.5 79.5t28 64.5h16q-14 -27 -30 -65t-31 -78.5t-28 -79.5t-20 -67z" />
    <glyph glyph-name="afii10027" unicode="&#x419;" horiz-adv-x="788" 
d="M274 335q13 40 27 78t27.5 72.5t26 63t22.5 49.5q-8 1 -15.5 1.5t-15.5 0.5q-48 0 -92.5 -9.5t-79 -28.5t-55 -48t-20.5 -68q0 -11 4 -21t6 -21l-60 -20q5 68 33 113t77.5 72.5t120 40t160.5 15.5q-25 -61 -54 -137.5t-58 -167.5q-23 -74 -38.5 -146.5t-24.5 -136.5
q-2 -11 -2 -19.5t-1 -17.5l-78 -10q3 27 10.5 64t19 80.5t25.5 90.5t30 95zM377 320q-5 -18 -12 -50.5t-14 -67.5q41 50 88.5 106.5t97 111.5t98.5 106t93 91l6 8l36 5q-17 -29 -38 -81t-39 -118t-30.5 -142.5t-12.5 -154.5q0 -63 16 -88.5t60 -25.5h17l-5 -20l-151 -10
q-7 23 -9.5 46.5t-2.5 47.5q0 71 9.5 140.5t23 130.5t29 108.5t28.5 74.5q-45 -46 -91.5 -100.5t-90 -111.5t-81 -112t-64.5 -101q-1 -8 -1.5 -15.5t-0.5 -12.5q0 -14 5.5 -39.5t19.5 -45.5l-40 -10q-10 29 -10 59q0 37 6.5 79.5t15 83t17.5 73.5t14 50q8 27 21.5 66t29 80
t31.5 79.5t28 64.5h16q-14 -27 -30 -65t-31 -78.5t-28 -79.5t-20 -67zM560 725l170 124l15 -61l-175 -77z" />
    <glyph glyph-name="afii10028" unicode="&#x41a;" horiz-adv-x="774" 
d="M53 384q5 68 33 114.5t77.5 74.5t120 40t160.5 12h50q-14 -27 -29.5 -64.5t-30.5 -77t-27.5 -77t-19.5 -65.5h9q11 11 36.5 38t60.5 60t78 68.5t88.5 65t91.5 48.5t87 19q19 0 37.5 -8t31.5 -22l-53 -54q-2 5 -6 12.5t-11.5 14.5t-18 12t-26.5 5q-36 0 -73.5 -16
t-73 -40.5t-67.5 -54.5t-57.5 -58t-43.5 -50.5t-25 -31.5q5 -18 12 -48t16.5 -64.5t21 -69t24 -63t26.5 -46t29 -17.5q45 0 90.5 26.5t84.5 63t69.5 74t47.5 59.5q4 5 6.5 8.5t4.5 5.5l-9 -22q-3 -5 -9 -12q-11 -15 -29.5 -39.5t-43 -53t-53.5 -57.5t-61 -52t-65.5 -38
t-66.5 -15q-21 0 -39.5 22.5t-34.5 57.5t-29 76.5t-22.5 79.5t-15.5 66.5t-8 38.5h-14q-5 -17 -11.5 -47.5t-13 -64.5t-11 -67.5t-4.5 -55.5q0 -16 5.5 -44t19.5 -51l-40 -10q-10 33 -10 69q0 43 7.5 92.5t20 101.5t29 104t33 99t33 86.5t29.5 67.5h-33q-28 -68 -53.5 -137
t-47.5 -139.5t-39.5 -144.5t-28.5 -152q-2 -11 -2 -19.5t-1 -17.5l-78 -10q4 42 17 96.5t30 113t37 118.5t40 113t38 96.5t31 70.5q-8 1 -15.5 1.5t-15.5 0.5q-48 0 -92.5 -9.5t-79 -28.5t-55 -48t-20.5 -68q0 -11 4 -21t6 -21l-60 -20v0z" />
    <glyph glyph-name="afii10030" unicode="&#x41c;" horiz-adv-x="981" 
d="M189 -10q4 36 15.5 85.5t27.5 104.5t35.5 113t39.5 112t38.5 100.5t33.5 78.5h38q3 -32 11 -62t17.5 -61.5t21 -65t22.5 -71.5q20 -73 28.5 -119t10.5 -80h2q10 22 20 41q-14 85 -44 178.5t-56 184.5q-11 36 -11 71h-48q-56 0 -107 -7.5t-90 -26t-62 -49t-23 -76.5
q0 -9 1.5 -18t3.5 -19l-60 -19q3 26 10.5 54t23.5 55t43 50.5t69 41.5t101.5 28.5t140.5 10.5h15q-1 -7 -2 -13.5t-1 -14.5q0 -24 7.5 -57t18.5 -69t23.5 -72t21.5 -67q14 -42 22.5 -82.5t13.5 -64.5q43 71 84.5 127.5t85 107.5t92 100t106.5 105l36 5q-17 -29 -38 -81
t-39 -118t-30.5 -142.5t-12.5 -154.5q0 -63 16 -88.5t60 -25.5h17l-5 -20l-151 -10q-7 23 -9.5 46.5t-2.5 47.5q0 72 9.5 143.5t24 133t30.5 109t28 72.5l-2 2q-28 -28 -61 -67.5t-67 -86t-66.5 -96t-60.5 -97t-49 -90t-31 -73.5l-54 -34q2 14 3 27.5t1 27.5q0 62 -12 125.5
t-28.5 121t-32.5 105t-25 78.5q-3 7 -3 15h-2q-5 -12 -16.5 -44t-25.5 -74.5t-29 -92.5t-27 -99t-20 -93t-8 -75q0 -5 1 -11t2 -11z" />
    <glyph glyph-name="afii10031" unicode="&#x41d;" horiz-adv-x="852" 
d="M184 -10q3 27 10.5 64t19 80.5t25.5 90.5t30 95h-15q-26 0 -44 -2t-31.5 -5.5t-24 -8.5t-20.5 -10l21 37q11 2 25.5 3t29.5 1h64q13 40 27 78t27.5 72.5t26 63t22.5 49.5q-8 1 -15.5 1.5t-15.5 0.5q-48 0 -92.5 -9.5t-79 -28.5t-55 -48t-20.5 -68q0 -11 4 -21t6 -21
l-60 -20q5 68 33 113t77.5 72.5t120 40t160.5 15.5q-25 -61 -52.5 -135.5t-53.5 -154.5h31q7 27 20.5 66t29 80t31.5 79.5t28 64.5h16q-14 -27 -30 -65t-31 -78.5t-28 -79.5t-20 -67h210q3 10 14.5 41.5t30 72t43.5 85t55.5 81.5t66 61t74.5 24q29 0 45 -22.5t16 -53.5
q0 -50 -24.5 -102.5t-64 -96t-89.5 -73t-101 -32.5q-3 -9 -8.5 -30t-11 -48t-9.5 -57.5t-4 -60.5q0 -50 16 -79.5t63 -29.5h16l-6 -15l-152 -10q-5 17 -8.5 40.5t-3.5 61.5t4.5 73t10.5 64.5t12.5 52.5t10.5 38h-210q-5 -17 -11.5 -48.5t-13.5 -66.5t-11.5 -67.5t-4.5 -52.5
q0 -14 5.5 -39.5t19.5 -45.5l-40 -10q-10 29 -10 59q0 37 6.5 79.5t14.5 81t16.5 68.5t11.5 42h-31q-23 -74 -39 -146.5t-25 -136.5q-2 -11 -2 -19.5t-1 -17.5zM859 680q-21 0 -43 -23.5t-43.5 -60t-40.5 -79t-34 -81t-25 -66.5t-12 -35q54 7 97.5 34.5t74 67.5t47 87
t16.5 94q0 21 -8.5 41.5t-28.5 20.5z" />
    <glyph glyph-name="afii10032" unicode="&#x41e;" horiz-adv-x="685" 
d="M254 -15q-94 0 -150.5 55t-56.5 156q0 49 13.5 100.5t38 101t59 93.5t77 77t91 52.5t101.5 19.5q98 0 154 -54t56 -151q0 -77 -30.5 -156.5t-82.5 -145t-121.5 -107t-148.5 -41.5zM311 87q-27 0 -50 13t-39.5 35.5t-25.5 53t-9 66.5q0 38 12 91t37.5 106t66.5 98.5
t98 69.5l-2 5q-48 -4 -96.5 -42t-87.5 -98t-63.5 -136t-24.5 -155q0 -39 8 -74.5t25 -62t42.5 -42t60.5 -15.5q58 0 112.5 37t95.5 98t66 137.5t25 156.5q0 37 -8 71.5t-23 61t-37.5 42.5t-51.5 16q-39 0 -78.5 -30t-71.5 -78t-52.5 -108.5t-20.5 -121.5q0 -27 5 -54.5
t16 -50t29 -36.5t44 -14q15 0 29 7.5t27 16.5l-58 -64v0z" />
    <glyph glyph-name="afii10034" unicode="&#x420;" horiz-adv-x="704" 
d="M324 -8q-5 19 -6.5 37.5t-1.5 38.5q0 35 8.5 91t25.5 119.5t43.5 128t62.5 116.5t81.5 84.5t101.5 32.5q50 0 76.5 -31t26.5 -86q0 -49 -20 -94t-52.5 -79.5t-74 -55t-83.5 -20.5q-22 0 -38.5 5.5t-28.5 12.5t-20 14.5t-12 11.5l30 50q2 -6 8 -19t16.5 -26.5t26.5 -23.5
t39 -10q29 0 55.5 22t46 54.5t31 70t11.5 69.5q0 18 -5 35t-14 30.5t-22.5 21.5t-29.5 8q-32 0 -64 -19.5t-61 -54t-53.5 -81.5t-43 -101.5t-28.5 -114.5t-10 -120q0 -28 4 -56t15 -53zM189 -10q3 39 15.5 93.5t31 116t40.5 124t42.5 117.5t37.5 96.5t26 60.5
q-8 1 -16.5 1.5t-16.5 0.5q-46 0 -89.5 -9.5t-77.5 -28.5t-54.5 -48t-20.5 -68q0 -11 1.5 -21t3.5 -21l-60 -20q4 65 29.5 110.5t71 74.5t110.5 42.5t148 13.5h31q-14 -32 -31.5 -78.5t-35.5 -100.5t-36 -111.5t-32.5 -112t-24.5 -102.5t-12 -83q-2 -11 -2 -19.5t-1 -17.5z
" />
    <glyph glyph-name="afii10035" unicode="&#x421;" horiz-adv-x="574" 
d="M504 38q-13 -5 -34 -13.5t-49.5 -17.5t-64.5 -15.5t-79 -6.5q-112 0 -171.5 53.5t-59.5 159.5q0 48 13.5 99.5t38 100.5t60 93t79 77t94.5 52.5t107 19.5q37 0 69 -6.5t57.5 -15t43 -16.5t25.5 -12l-40 -94q-3 9 -11.5 28.5t-25 39.5t-42.5 35.5t-65 15.5
q-47 0 -90.5 -31.5t-76.5 -80.5t-53 -110t-20 -119q0 -27 6 -54.5t18 -49.5t31.5 -36t46.5 -14q11 0 20 2.5t20 9.5l-42 -47q-24 1 -46 11.5t-38.5 31.5t-26 53t-9.5 76q0 75 22 138t54 110t69 76.5t66 36.5l-2 4q-50 -1 -99 -38t-89 -96t-64.5 -134t-24.5 -151
q0 -43 14 -77.5t39.5 -59t61 -38t79.5 -13.5q36 0 68 7t58.5 16t46 19t30.5 16z" />
    <glyph glyph-name="afii10036" unicode="&#x422;" horiz-adv-x="630" 
d="M34 404q0 30 12 69t41 74t77.5 59t120.5 24q100 0 184 -4t162 -4q15 0 38.5 0.5t49 1.5l51 2t44.5 2l-50 -56q-13 -2 -27.5 -2.5t-28.5 -0.5q-12 0 -43.5 2t-66.5 4t-66 4t-43 2q-7 -16 -19.5 -45.5t-26.5 -69t-28.5 -85.5t-26 -93.5t-19 -94.5t-7.5 -88q0 -27 4.5 -54
t15.5 -51l-40 -7q-6 17 -8 35.5t-2 37.5q0 43 9 94t22.5 104t30 104t32 94t28 74.5t18.5 44.5h-50q-42 0 -81.5 2t-81.5 2q-81 0 -128 -29.5t-47 -83.5q0 -17 2.5 -26.5t7.5 -20.5zM208 -10q4 42 15 92t26 103t32.5 107t35.5 104t34.5 93t29.5 75h54q-2 -5 -9 -24.5t-17 -48
t-22 -63t-23 -69.5q-32 -100 -48.5 -181t-26.5 -141q-2 -11 -2 -19.5t-1 -17.5z" />
    <glyph glyph-name="afii10037" unicode="&#x423;" horiz-adv-x="630" 
d="M496 125q-22 -71 -51.5 -129.5t-69 -100.5t-90.5 -65t-117 -23q-44 0 -73 8.5t-47 20t-27.5 24t-13.5 20.5l69 44q0 -4 -0.5 -7t-0.5 -7q0 -15 5.5 -30.5t19.5 -28.5t37.5 -21t58.5 -8q39 0 72.5 21.5t61.5 57t51.5 82t42.5 96.5t34 100.5t27 93.5l98 337h-23
q-1 -7 -7 -33t-16.5 -64.5t-25 -85.5t-33 -95t-40 -93t-46.5 -80t-52.5 -56.5t-57.5 -21.5q-27 0 -43 12.5t-25 34.5t-12 51t-5 62l-8 149q-3 59 -6 100t-10.5 66.5t-22 37t-40.5 11.5h-17l6 20l130 5q1 -5 3 -29t5 -58.5t6.5 -75t5.5 -77.5l9 -164q1 -43 8.5 -69t36.5 -26
q31 0 61 34t57 85.5t49.5 113t39 116.5t26.5 95t12 50h102z" />
    <glyph glyph-name="afii10039" unicode="&#x425;" horiz-adv-x="796" 
d="M445 327h-2q-6 -19 -22.5 -51.5t-41.5 -70.5t-58 -77t-72.5 -71t-84 -52t-93.5 -20q-32 0 -58 9t-44 24.5t-27.5 35.5t-9.5 43q0 4 0.5 7.5t1.5 8.5l72 47q-5 -13 -9.5 -25.5t-4.5 -26.5q0 -35 25 -56.5t62 -21.5q39 0 81.5 17.5t82.5 46.5t76.5 66.5t63.5 79t43 83.5
t16 79q0 38 -9 70.5t-26.5 56.5t-42.5 37.5t-57 13.5q-17 0 -32 -3l54 63q43 -2 74.5 -20.5t52.5 -50t31 -73.5t10 -91q0 -65 3 -127t7 -109q8 -51 25.5 -83t37.5 -50t40 -24.5t32 -6.5q22 0 38.5 6t29 14t21.5 17.5t15 16.5l-2 2q-17 -12 -34 -21t-45 -9q-35 0 -60.5 20.5
t-42 54.5t-25 77t-8.5 87q0 90 23.5 166.5t64 133t94.5 88.5t115 32q26 0 44 -7.5t29.5 -18t17 -21t5.5 -16.5l-73 -51q1 5 2 9t1 9q0 27 -15.5 41.5t-41.5 14.5q-46 0 -90.5 -30t-79 -82t-55.5 -122t-21 -151q0 -41 7 -80t22 -70t38.5 -50t56.5 -19q25 0 43 8t30.5 19
t20 22.5t11.5 17.5l12 -5q-8 -17 -20.5 -38t-33.5 -40t-52 -32t-75 -13q-47 0 -78 22.5t-50.5 61t-27.5 88.5t-8 104v66z" />
    <glyph glyph-name="afii10040" unicode="&#x426;" horiz-adv-x="796" 
d="M686 610q-2 -10 -18.5 -68t-48.5 -153q-24 -70 -51 -142t-61 -130t-78.5 -95t-102.5 -37q-34 0 -60 13.5t-44 37t-27 55.5t-9 69q0 53 13 103.5t33.5 96t45.5 85t49 70.5t44.5 53t31.5 32h-23q-53 0 -102 -8.5t-86.5 -27t-60 -49t-22.5 -74.5q0 -10 1.5 -19t3.5 -18
l-60 -20q0 64 29.5 109.5t82 75t125 43t157.5 13.5q-24 -24 -56 -69.5t-61.5 -105t-49.5 -128t-20 -138.5q0 -24 5.5 -48.5t17.5 -44.5t30 -33t43 -13q42 0 77.5 30t65.5 79t55.5 110.5t46.5 124.5q24 72 42 131t29 105h120q-4 -8 -18 -42.5t-32.5 -85t-39.5 -110.5
t-38 -119.5t-28.5 -113t-11.5 -90.5q0 -17 6 -25.5t15.5 -13t21.5 -5t23 -0.5h97q-3 -13 -14 -44.5t-29.5 -64.5t-44 -58.5t-56.5 -25.5q-20 0 -34 8t-22.5 21.5t-12 31.5t-3.5 38q0 22 4 39h17q-1 -6 -1 -10.5v-9.5q0 -14 2.5 -28t9.5 -25t18.5 -18t29.5 -7q22 0 40 14.5
t32.5 35t25 43.5t16.5 40l-232 -5q5 39 17 89.5t28 107t35.5 115.5t39.5 114t40 104t38 85h-46z" />
    <glyph glyph-name="afii10065" unicode="&#x430;" horiz-adv-x="519" 
d="M332 271q-3 -10 -13 -35.5t-26 -57t-37.5 -66t-48 -62.5t-57.5 -46.5t-65 -18.5q-37 0 -58 29t-21 73q0 31 12.5 69t33.5 76.5t49 75t59.5 65t64 45.5t63.5 17t46.5 -19.5t15.5 -55.5q0 -14 -2 -27.5t-5 -27.5l9 -2l39 124l74 8q-4 -9 -16 -40.5t-27 -80.5l-31 -100
q-6 -20 -13 -44t-13 -47.5t-10 -43t-4 -29.5q0 -9 5.5 -14.5t13.5 -5.5q19 0 43 15t50 38.5t51.5 51.5t47 54.5t37 47t21.5 28.5l-8 -25q-7 -9 -24 -31.5t-40.5 -51t-51.5 -59t-58 -55.5t-60 -41.5t-56 -16.5q-25 0 -35.5 16t-10.5 36q0 16 6 37t11 39l49 155zM71 109
q0 -13 2.5 -27t8.5 -25.5t15 -19t22 -7.5q32 0 67.5 30.5t65.5 75t49.5 93.5t19.5 87q0 35 -17 59.5t-49 24.5q-26 0 -49.5 -16t-44 -41t-37.5 -57t-28.5 -64.5t-18 -62t-6.5 -50.5z" />
    <glyph glyph-name="afii10067" unicode="&#x432;" horiz-adv-x="481" 
d="M83 540v-6q0 -26 15 -44t42 -23q4 10 12 33t21 52.5t32 61t45 57t59 42.5t75 17q33 0 59 -17.5t26 -56.5q0 -38 -27 -74.5t-68 -67t-90 -51.5t-93 -28l-90 -282q-6 -20 -11.5 -45t-5.5 -41q0 -21 13.5 -39t52.5 -18q20 0 29 4.5t19 13.5q-25 20 -39.5 50t-14.5 83
q0 34 12 81t36.5 90t61 73t84.5 30q21 0 38 -8.5t28.5 -22t17.5 -32t6 -37.5q0 -47 -22 -95.5t-53 -90.5t-63 -73.5t-53 -43.5q11 -5 22.5 -8.5t22.5 -3.5q45 0 89.5 28t83 66t69 77t46.5 62q2 4 4.5 7t4.5 5l-8 -25q-2 -3 -8 -11q-16 -23 -45.5 -61.5t-67.5 -76t-83 -64.5
t-93 -27q-17 0 -32.5 5t-30.5 12q-14 -8 -43.5 -20t-70.5 -12q-38 0 -58 20.5t-20 49.5q0 20 7 47.5t15 50.5l91 286q-44 3 -62.5 23t-25.5 48zM164 171q0 -54 17 -84t39 -47q22 16 46.5 44.5t45 64.5t33.5 76t13 81q0 15 -3 31t-9.5 29t-18.5 21t-30 8q-23 0 -47 -19.5
t-43 -51t-31 -71.5t-12 -82zM360 715q-25 0 -45.5 -17t-37 -42.5t-29.5 -56.5t-22.5 -59.5t-16 -50.5t-10.5 -29q35 1 74.5 15.5t73 39t55.5 58.5t22 75q0 31 -19 49t-45 18z" />
    <glyph glyph-name="afii10069" unicode="&#x434;" horiz-adv-x="519" 
d="M610 240q-11 -15 -29.5 -39t-42 -52t-51 -56t-56 -51t-56.5 -37.5t-53 -15.5q-5 -14 -14 -37t-23.5 -49t-35 -52.5t-49 -47.5t-66 -34.5t-85.5 -13.5q-39 0 -73.5 8t-59.5 23t-39.5 36t-14.5 47q0 30 19 54.5t45.5 42.5t54 30t45.5 19q-19 28 -19 65q0 34 13 74t35 79.5
t50.5 76t60.5 64.5t65 44.5t63 16.5q29 0 45 -20t16 -57q0 -14 -2.5 -27t-5.5 -26h10l38 125l66 5q-4 -11 -20.5 -58.5t-36.5 -116.5l-74 -245q42 7 83.5 35.5t79 66t70 78t55.5 70.5zM335 270q-3 -10 -13.5 -35t-26.5 -57t-38 -66t-49 -62t-58.5 -46.5t-66.5 -18.5
q-25 0 -45 20q-16 -6 -37 -16.5t-39.5 -26t-31.5 -36t-13 -46.5q0 -23 11.5 -43t31.5 -35t47 -23.5t58 -8.5q37 0 66 13.5t52 41.5t42.5 71.5t37.5 102.5l83 271h-11zM72 111q0 -13 2.5 -26.5t8.5 -24.5t16 -18t25 -7q21 0 44 14t45.5 36.5t43 52t36 61t24.5 62.5t9 57
q0 29 -16 53t-49 24q-36 0 -70 -30.5t-60.5 -74.5t-42.5 -93t-16 -86z" />
    <glyph glyph-name="afii10070" unicode="&#x435;" horiz-adv-x="389" 
d="M478 235q-12 -16 -30 -40.5t-42 -52.5t-54 -56t-65 -50.5t-75.5 -36.5t-84.5 -14q-58 0 -88 29.5t-30 83.5q0 33 12 70.5t32.5 75t48.5 72t60 61t66 42.5t67 16q26 0 44.5 -16.5t18.5 -49.5q0 -27 -17 -58.5t-46 -59.5t-68 -46.5t-83 -18.5q-27 0 -56 8q-6 -20 -10 -40
t-4 -40q0 -48 24 -68.5t67 -20.5q56 0 107.5 29t93.5 68t73 78t47 60zM263 415q-31 0 -58 -23.5t-49 -54t-36.5 -60.5t-19.5 -42q4 -3 12.5 -7.5t20 -9.5t25.5 -8.5t29 -3.5q24 0 45.5 14.5t37 37t24.5 50.5t9 54q0 20 -10 36.5t-30 16.5z" />
    <glyph glyph-name="afii10074" unicode="&#x438;" horiz-adv-x="519" 
d="M398 415l-2 2q-2 -9 -15 -44.5t-33.5 -83.5t-49 -101.5t-63 -98.5t-73.5 -74.5t-82 -29.5q-17 0 -28.5 6t-18.5 14.5t-9.5 18.5t-2.5 19q0 11 2.5 26t6 31t8 31t7.5 26l29 93q3 9 8 25t10 33.5t8.5 34t3.5 27.5q0 21 -11.5 29t-36.5 8h-19l5 15l151 13l-95 -309
q-5 -17 -11 -38.5t-6 -32.5q0 -10 8.5 -22.5t26.5 -12.5q31 0 63 27.5t61 69.5t54.5 92t45 95t31.5 77.5t14 40.5l80 13l-76 -239q-5 -16 -11.5 -36.5t-11.5 -40t-8.5 -35.5t-3.5 -23q0 -13 4 -22t16 -9q18 0 41 14.5t47.5 37t49 50t45.5 53t36 46t21 29.5l-8 -25
q-6 -8 -21.5 -30t-37.5 -49.5t-49 -57.5t-55 -55.5t-56.5 -41.5t-52.5 -16q-26 0 -38 18t-12 37q0 12 6.5 34.5t12.5 41.5z" />
    <glyph glyph-name="afii10075" unicode="&#x439;" horiz-adv-x="519" 
d="M398 415l-2 2q-2 -9 -15 -44.5t-33.5 -83.5t-49 -101.5t-63 -98.5t-73.5 -74.5t-82 -29.5q-17 0 -28.5 6t-18.5 14.5t-9.5 18.5t-2.5 19q0 11 2.5 26t6 31t8 31t7.5 26l29 93q3 9 8 25t10 33.5t8.5 34t3.5 27.5q0 21 -11.5 29t-36.5 8h-19l5 15l151 13l-95 -309
q-5 -17 -11 -38.5t-6 -32.5q0 -10 8.5 -22.5t26.5 -12.5q31 0 63 27.5t61 69.5t54.5 92t45 95t31.5 77.5t14 40.5l80 13l-76 -239q-5 -16 -11.5 -36.5t-11.5 -40t-8.5 -35.5t-3.5 -23q0 -13 4 -22t16 -9q18 0 41 14.5t47.5 37t49 50t45.5 53t36 46t21 29.5l-8 -25
q-6 -8 -21.5 -30t-37.5 -49.5t-49 -57.5t-55 -55.5t-56.5 -41.5t-52.5 -16q-26 0 -38 18t-12 37q0 12 6.5 34.5t12.5 41.5zM272 560l170 124l15 -61l-175 -77z" />
    <glyph glyph-name="afii10076" unicode="&#x43a;" horiz-adv-x="500" 
d="M257 237l2 -11q6 -24 13.5 -57.5t18 -64t24.5 -52.5t32 -22t41.5 15t48.5 38t50 50.5t46.5 53t36.5 45.5l21 28l-8 -25q-5 -7 -21.5 -28.5t-39 -49t-50 -58t-55 -56t-53.5 -42t-45 -16.5q-17 0 -32 16.5t-27.5 41.5t-23 55.5t-18.5 58.5t-13 50t-6 30h58zM208 435
l-135 -429h16q5 10 16.5 45.5t29.5 83t42.5 100.5t54 97.5t64.5 73.5t75 29q19 0 35 -11l-25 -49q-10 25 -40 25q-28 0 -56 -26t-53.5 -66t-48 -88.5t-39.5 -93t-28.5 -80t-15.5 -48.5l-92 -13l74 239q14 45 24 85t11 59q0 14 -6.5 22t-16.5 11.5t-22 4.5t-23 1l5 15z" />
    <glyph glyph-name="afii10081" unicode="&#x43f;" 
d="M88 250q3 9 8 26t10 36t8.5 36.5t3.5 28.5q0 30 -48 30h-19l5 15l151 13l-133 -430h10q6 17 20.5 55.5t35.5 86t49 99t60.5 93.5t69.5 69t77 27q26 0 41.5 -17t15.5 -38q0 -25 -7 -48l-14 -46l-41 -129q-11 -32 -17 -62.5t-6 -41.5q0 -9 5.5 -16t14.5 -7q15 0 36.5 14
t46 36.5t49.5 49.5t47 52.5t38.5 46.5t23.5 31l-8 -25q-8 -10 -25 -33t-40.5 -50.5t-52 -57t-57.5 -54t-57 -40t-52 -15.5q-17 0 -28 13.5t-11 30.5q0 9 3 24.5t8 33t11 36t11 34.5l29 93q9 31 18.5 64.5t9.5 49.5q0 11 -6 23.5t-25 12.5q-28 0 -57 -27t-57 -68t-53 -90.5
t-45 -93.5t-32.5 -77.5t-15.5 -43.5l-91 -15z" />
    <glyph glyph-name="afii10080" unicode="&#x43e;" horiz-adv-x="463" 
d="M552 240q-6 -8 -20.5 -29t-36 -47.5t-49 -55.5t-58.5 -53t-64.5 -39.5t-66.5 -15.5q-15 0 -30 4t-28 9q-9 -5 -34.5 -16.5t-61.5 -11.5q-46 0 -69.5 29t-23.5 80q0 33 12 71t32.5 76t49.5 73t62.5 62t71 43t75.5 16q47 0 71.5 -27.5t24.5 -72.5q0 -50 -22 -99.5
t-52.5 -91.5t-62 -73t-50.5 -44q9 -3 18.5 -5t18.5 -2q33 0 66 14.5t63.5 38t57.5 51.5t49.5 55.5t39 50.5t25.5 35zM236 403q-24 -11 -53 -39t-54 -67t-42 -87t-17 -100q0 -39 17 -64.5t62 -25.5q8 0 16 1.5t16 3.5q-11 9 -20 19.5t-16.5 25t-11.5 34t-4 47.5q0 46 9 84.5
t24.5 69.5t35 53.5t40.5 37.5zM144 171q0 -56 17.5 -87t42.5 -48q13 10 36 35.5t45 62t38 81t16 92.5q0 38 -15.5 65.5t-47.5 27.5q-29 0 -53 -23.5t-41.5 -58t-27.5 -74.5t-10 -73z" />
    <glyph glyph-name="afii10082" unicode="&#x440;" horiz-adv-x="481" 
d="M71 224q14 45 24.5 85t10.5 59q0 15 -6.5 22.5t-16.5 11t-22 4.5t-23 1l5 15l154 13l-209 -662h16q3 9 13 42.5t25.5 81.5t36 107t45 118.5t53 116t59 100t64 70t67.5 26.5q16 0 28.5 -8t20.5 -21.5t12 -31t4 -35.5q0 -35 -10.5 -75.5t-29.5 -79.5t-44 -75t-53.5 -63.5
t-60 -44t-61.5 -16.5q-19 0 -32 4t-21.5 9.5t-13.5 12t-8 11.5l40 33q1 -5 4.5 -13.5t10.5 -16.5t17.5 -14t25.5 -6q24 0 46 16.5t41 43.5t34.5 61t26.5 69.5t17 69t6 58.5q0 10 -1.5 21t-6 20t-11.5 15t-17 6q-31 0 -62 -32t-59.5 -78.5t-52.5 -99t-40 -93.5
q-7 -18 -17 -45.5t-20 -59t-20.5 -64.5t-19 -61.5t-15.5 -51t-10 -32.5l-92 -13z" />
    <glyph glyph-name="afii10083" unicode="&#x441;" horiz-adv-x="389" 
d="M478 240q-9 -15 -27 -40t-42.5 -53.5t-55.5 -57t-67 -52t-76.5 -38t-83.5 -14.5q-32 0 -54 9t-36 25t-20.5 36t-6.5 43q0 28 11 64.5t31 73.5t48 73t61.5 64t72 45t79.5 17q35 0 57 -7.5t36 -12.5l-27 -62q-5 7 -12.5 17t-18.5 19t-26.5 15t-36.5 6q-28 0 -54.5 -15
t-49.5 -39t-41.5 -55t-31.5 -63t-20.5 -63t-7.5 -55q0 -16 3 -33t12.5 -30.5t28 -22.5t49.5 -9q53 0 103 29t92 68.5t73 80t47 62.5z" />
    <glyph glyph-name="afii10084" unicode="&#x442;" horiz-adv-x="778" 
d="M52 422l151 13l-133 -430h10l3 9q8 21 23 60.5t36 86.5t48 95.5t58 88t65.5 65t71.5 25.5q26 0 41.5 -17t15.5 -38q0 -25 -7 -48l-14 -46l-87 -281h12q5 15 19 53t34.5 85.5t48 99t59 94.5t67.5 70.5t74 27.5q30 0 44.5 -18t14.5 -40q0 -23 -7.5 -46t-14.5 -46l-40 -128
q-10 -32 -16.5 -62.5t-6.5 -41.5q0 -9 5.5 -16t14.5 -7q15 0 36.5 14t45 36.5t48 49.5t45.5 52.5t37.5 46.5t23.5 31l-8 -25q-7 -10 -24 -33t-40.5 -50.5t-51 -57t-56 -54t-56 -40t-51.5 -15.5q-17 0 -28 13.5t-11 30.5q0 9 3 24.5t8 33t11 36t11 34.5l44 140q5 18 9 39
t4 29q0 9 -6 22t-23 13q-27 0 -55 -25.5t-55 -65t-51 -87.5t-43.5 -92.5t-33 -79.5t-18.5 -50l-92 -15l88 278q9 29 16.5 58t7.5 43q0 11 -6 23.5t-25 12.5q-28 0 -56.5 -27t-55.5 -68t-51.5 -90.5t-43.5 -93.5t-31 -77.5t-15 -43.5l-91 -15l82 265q3 9 8 26t10 36t8.5 36.5
t3.5 28.5q0 30 -48 30h-19zM125 501q82 0 153.5 7.5t137.5 23.5t129 40t126 57l68 -32q-87 -33 -159 -52t-142.5 -30t-145 -16.5t-166.5 -11.5z" />
    <glyph glyph-name="afii10085" unicode="&#x443;" 
d="M632 240q-16 -24 -48 -65t-72 -81.5t-84 -71t-83 -34.5q-8 -23 -23 -62.5t-45 -77.5t-80 -65.5t-127 -27.5q-72 0 -115 29t-43 74q0 26 12.5 48t32 40t43.5 32.5t46.5 24.5t40.5 16.5t26 9.5q-4 11 -8.5 31t-6.5 60l-8 179q-2 42 -6 64t-13 32t-23.5 12t-37.5 3l5 20
l126 5q3 -17 4 -34.5t2 -34.5l8 -179q1 -34 2.5 -62t5.5 -48t11 -31t19 -11q19 0 41 27t43 68t41 90t36 92.5t26 74.5t12 38l93 10l-130 -415q44 6 86.5 35.5t80 67t68 77t50.5 65.5zM402 417q-3 -10 -14.5 -46t-29 -84t-39.5 -101.5t-47 -98t-52.5 -73.5t-54.5 -29
q-22 0 -32.5 12.5t-14.5 20.5q-18 -7 -44 -19.5t-50 -31t-40.5 -42.5t-16.5 -54q0 -42 37 -69t95 -27q39 0 67.5 15.5t50 44.5t38 70.5t32.5 94.5l126 417h-11z" />
    <glyph glyph-name="afii10087" unicode="&#x445;" horiz-adv-x="500" 
d="M589 235q-6 -9 -22 -31t-38 -49.5t-48.5 -57.5t-54 -55t-53.5 -41t-48 -16q-32 0 -48.5 24.5t-24 58t-9 67t-3.5 51.5h-2q-5 -8 -15.5 -26t-25.5 -40.5t-34 -46.5t-40 -43.5t-44 -32t-46 -12.5q-27 0 -36.5 7.5t-13.5 15.5l50 45q0 -14 6.5 -23.5t21.5 -9.5t33 12.5
t36.5 32t36.5 43t33 45t25.5 39t14.5 25.5v67q0 11 0.5 22t0.5 22q0 17 -4 29.5t-16 12.5q-11 0 -30 -18t-38.5 -41.5t-36 -46t-23.5 -31.5l8 25q4 6 14 21.5t24 35.5t30.5 41t33 38.5t33 29t30.5 11.5q23 0 29 -19t6 -42q0 -34 -1 -67t-3 -65l2 -2q6 13 24.5 45t45.5 65.5
t60 59t68 25.5q21 0 35 -18l-41 -49q-3 8 -8 15t-18 7q-24 0 -51.5 -23t-51.5 -54t-42 -61.5t-24 -46.5q0 -14 1 -44t6.5 -60t17 -53t33.5 -23q18 0 41 14.5t47.5 37.5t49 50.5t45 53.5t36.5 47.5t24 31.5z" />
    <glyph glyph-name="afii10088" unicode="&#x446;" horiz-adv-x="519" 
d="M398 415l-2 2q-2 -9 -15 -44.5t-33.5 -83.5t-49 -101.5t-63 -98.5t-73.5 -74.5t-82 -29.5q-17 0 -28.5 6t-18.5 14.5t-9.5 18.5t-2.5 19q0 11 2.5 26t6 31t8 31t7.5 26l29 93q3 9 8 25t10 33.5t8.5 34t3.5 27.5q0 21 -11.5 29t-36.5 8h-19l5 15l151 13l-95 -309
q-5 -17 -11 -38.5t-6 -32.5q0 -10 8.5 -22.5t26.5 -12.5q31 0 63 27.5t61 69.5t54.5 92t45 95t31.5 77.5t14 40.5l80 13l-76 -239q-5 -16 -11.5 -36.5t-11.5 -40t-8.5 -35.5t-3.5 -23q0 -13 4 -22t16 -9q18 0 41 14.5t47.5 37t49 50t45.5 53t36 46t21 29.5l-8 -25
q-9 -12 -37 -46.5t-58 -82.5q-29 -45 -40.5 -97t-18.5 -107l-52 -28q14 58 30.5 104t36.5 88q-34 -34 -68.5 -57.5t-64.5 -23.5q-26 0 -38 18t-12 37q0 12 6.5 34.5t12.5 41.5z" />
    <glyph glyph-name="afii10038" unicode="&#x424;" horiz-adv-x="735" 
d="M323 -15q0 6 -0.5 11.5t-0.5 11.5q0 24 8.5 73t25.5 108t43.5 121t62 113t81 83.5t100.5 32.5q51 0 77.5 -31t26.5 -86q0 -49 -20 -94t-52.5 -79.5t-74 -55t-83.5 -20.5q-41 0 -64 15t-33 25l-3 3l30 51q2 -6 8 -19.5t16.5 -26.5t26.5 -23t39 -10q29 0 55 21t46 53.5
t32 70.5t12 72q0 40 -20 67t-54 27q-40 0 -74.5 -25t-63 -65.5t-50.5 -91t-37 -101.5t-23 -98t-8 -79q0 -10 0.5 -19.5t0.5 -19.5zM425 625h47q-14 -32 -31 -78.5t-35.5 -100.5t-36 -111.5t-32.5 -112t-25 -102.5t-12 -83l-1.5 -21t-1.5 -16l-78 -10q3 45 20 111.5t40 139.5
q-36 -30 -80 -51t-93 -21q-53 0 -75 27.5t-22 65.5q0 35 20 82.5t54.5 91t80 73.5t96.5 30q29 0 47 -6.5t29 -10.5l-22 -51q-5 6 -11 14t-15 15.5t-21.5 12.5t-30.5 5q-35 0 -66 -26t-54 -63.5t-36.5 -78.5t-13.5 -70q0 -14 2.5 -28t10.5 -25t23.5 -18.5t41.5 -7.5
q38 0 74.5 19t68.5 46q18 54 36.5 106.5t35.5 97t31 78t22 50.5z" />
    <glyph glyph-name="afii10086" unicode="&#x444;" horiz-adv-x="697" 
d="M298 252q-24 -54 -50.5 -102.5t-55.5 -85.5t-59.5 -59t-61.5 -22q-17 0 -29 8t-20 21.5t-12 31t-4 35.5q0 35 10.5 75.5t29.5 79.5t44 75t53.5 63.5t59.5 44t62 16.5q19 0 32 -4t21.5 -9.5t13.5 -12t8 -11.5l-40 -33q-2 5 -5 13.5t-10 16.5t-17.5 14t-25.5 6
q-24 0 -46 -16.5t-41 -43.5t-34.5 -61t-26.5 -69.5t-17 -69t-6 -58.5q0 -10 1.5 -21t6 -20t11 -15t17.5 -6q31 0 62 32t59.5 78.5t52 99t40.5 93.5q5 12 10.5 28t12.5 36l38 119q14 45 24.5 85t10.5 59q0 15 -6.5 22.5t-16.5 11t-22 4.5t-23 1l5 15l154 13l-302 -957h16
q3 9 13 42.5t25.5 81.5t36 107t45 118.5t53 116t59.5 100t64.5 70t68.5 26.5q16 0 28.5 -8t20.5 -21.5t12 -31t4 -35.5q0 -35 -10.5 -75.5t-29.5 -79.5t-44 -75t-53.5 -63.5t-60 -44t-61.5 -16.5q-19 0 -32 4t-21.5 9.5t-13.5 12t-8 11.5l40 33q1 -5 4.5 -13.5t10.5 -16.5
t17.5 -14t25.5 -6q24 0 46 16.5t41 43.5t34.5 61t26.5 69.5t17 69t6 58.5q0 10 -1.5 21t-6 20t-11.5 15t-17 6q-31 0 -62 -32t-59.5 -78.5t-52.5 -99t-40 -93.5q-8 -18 -17.5 -45.5t-20 -59t-21 -64.5t-19.5 -61.5t-16 -51t-10 -32.5l-92 -13z" />
    <glyph glyph-name="afii10068" unicode="&#x433;" horiz-adv-x="277" 
d="M-62 260q20 34 42.5 66t47.5 56t52 38.5t56 14.5q26 0 41.5 -17t15.5 -38q0 -25 -6.5 -48t-14.5 -46l-41 -129q-9 -29 -16 -57.5t-7 -42.5q0 -11 4.5 -19t15.5 -8q15 0 36.5 14t46 36.5t49.5 49.5t47 52.5t38.5 46.5t23.5 31l-8 -25q-7 -10 -24.5 -33t-41 -50.5t-52 -57
t-57.5 -54t-57 -40t-52 -15.5q-17 0 -28 13.5t-11 30.5q0 9 3 24t8 32.5t11 36t11 35.5l29 93q10 31 18.5 64.5t9.5 49.5q0 11 -6 23.5t-25 12.5q-17 0 -38 -12t-42.5 -32t-42 -46.5t-36.5 -54.5v5z" />
    <glyph glyph-name="Euro" unicode="&#x20ac;" horiz-adv-x="574" 
d="M34 351q12 4 24 7.5t25 7.5q23 54 58.5 103.5t81 87.5t100 60.5t115.5 22.5q37 0 69 -6.5t57.5 -15t43 -16.5t25.5 -12l-40 -94q-3 9 -11.5 28.5t-25 39.5t-42.5 35.5t-65 15.5q-46 0 -88 -29t-75 -77l-32 -22q34 55 74 89t72 42l-2 4q-35 -1 -69.5 -19.5t-66 -50
t-58.5 -74t-46 -91.5q74 20 161 33t168 13q20 0 40 -1t38 -3l-23 -57q-31 10 -71.5 14t-85.5 4q-60 0 -121.5 -7t-114.5 -19q-16 -48 -24 -98q75 20 160.5 34t164.5 14q17 0 34.5 -0.5t32.5 -2.5l-23 -56q-30 8 -66 12t-77 4q-57 0 -116 -7t-112 -19q-2 -11 -2 -21v-21
q0 -43 14 -77.5t39.5 -59t61 -38t79.5 -13.5q36 0 68 7t58.5 16t46 19t30.5 16l-14 -35q-13 -5 -34 -13.5t-49.5 -17.5t-64.5 -15.5t-79 -6.5q-112 0 -171.5 53.5t-59.5 159.5v12t1 13q-9 -3 -18 -6.5t-17 -6.5l-3 22q10 3 19.5 6t20.5 6q6 48 24 98q-9 -3 -18.5 -6.5
t-17.5 -6.5l-3 22v0z" />
    <glyph glyph-name="afii10089" unicode="&#x447;" horiz-adv-x="519" 
d="M398 415l-2 2q1 -1 -7.5 -22t-25.5 -51.5t-41 -65.5t-54 -65t-66.5 -50t-76.5 -20q-17 0 -28.5 6t-18.5 14.5t-9.5 18.5t-2.5 19q0 11 2.5 26t6.5 31t8 31t7 26l13 48q2 8 2 11q0 16 -14 24.5t-35 8.5h-19l5 15l151 13l-50 -151q-6 -17 -11.5 -38.5t-5.5 -32.5
q0 -10 8.5 -22.5t26.5 -12.5q31 0 60 18t54.5 45t45.5 59t34.5 59t22 45l7.5 18l80 13l-76 -239q-5 -16 -11 -36.5t-11.5 -40t-9 -35.5t-3.5 -23q0 -13 4 -22t16 -9q16 0 39.5 17.5t49.5 43.5t51.5 56t46.5 56t35.5 43.5t17.5 17.5l1 -1l-1 -3l-30 -43q-48 -65 -94 -116
q-20 -22 -40.5 -42.5t-41 -37t-39.5 -26.5t-35 -10q-26 0 -38 18t-12 37q0 12 6.5 34.5t12.5 41.5z" />
    <glyph glyph-name="afii10079" unicode="&#x43d;" horiz-adv-x="514" 
d="M207 435l-44 -140q16 -9 37 -12.5t44 -3.5q27 0 55.5 4.5t54.5 13.5l41 128l64 10l-76 -239q-5 -15 -11 -34.5t-11.5 -38.5t-9 -35t-3.5 -25q0 -13 3 -23t17 -10q18 0 41 14.5t47.5 37t49 50t45.5 53t36 46t21 29.5l-8 -25q-4 -8 -19 -29.5t-37.5 -49.5t-50 -58
t-56.5 -55t-57.5 -41.5t-51.5 -16.5q-26 0 -38 18t-12 37q0 12 6.5 34.5t12.5 41.5l52 166q-35 -12 -73.5 -20.5t-75.5 -8.5q-14 0 -25.5 1t-22.5 4l-81 -261l-65 -12l114 387q0 16 -12.5 25.5t-37.5 9.5h-19l5 15z" />
    <glyph glyph-name="afii10066" unicode="&#x431;" horiz-adv-x="463" 
d="M236 403q-24 -11 -53 -39t-54 -67t-42 -87t-17 -100q0 -39 17 -64.5t62 -25.5q8 0 16 1.5t16 3.5q-11 9 -20 19.5t-16.5 25t-11.5 34t-4 47.5q0 46 9 84.5t24.5 69.5t35 53.5t40.5 37.5zM144 171q0 -56 17.5 -87t42.5 -48q13 10 36 35.5t45 62t38 81t16 92.5
q0 38 -15.5 65.5t-47.5 27.5q-29 0 -53 -23.5t-41.5 -58t-27.5 -74.5t-10 -73zM14 45q-2 11 -3 23.5t-1 25.5q0 33 12 71t32.5 76t49.5 73t62.5 62t71 43t75.5 16q23 0 43 -5q-19 23 -38 41.5t-34.5 38t-25 42t-9.5 53.5q0 21 6.5 43t22 40t40.5 29.5t62 11.5
q25 0 46.5 -4.5t38 -11t28 -13t18.5 -10.5l-25 -63q-3 6 -10 19t-20 26t-33 22.5t-48 9.5q-29 0 -49 -10t-33 -25.5t-18.5 -34t-5.5 -36.5q0 -31 10.5 -53t27.5 -41.5t38 -40t41 -48.5q23 -22 23 -80q0 -50 -22 -99.5t-52.5 -91.5t-62 -73t-50.5 -44q9 -3 18.5 -5t18.5 -2
q33 0 66 14.5t63.5 38t57.5 51.5t49.5 55.5t39 50.5t25.5 35l-8 -25q-6 -8 -20.5 -29t-36 -47.5t-49 -55.5t-58.5 -53t-64.5 -39.5t-66.5 -15.5q-15 0 -30 4t-28 9q-9 -5 -34.5 -16.5t-61.5 -11.5q-28 0 -47.5 10.5t-30.5 28.5q-9 -14 -12.5 -20.5t-11.5 -16.5l-47 -8z" />
    <glyph glyph-name="afii10023" unicode="&#x401;" horiz-adv-x="685" 
d="M573 1q-29 -6 -58 -6q-77 0 -123 12.5t-66 22.5q0 11 -1 19.5t-1 19.5q0 47 9 101t23.5 108.5t31.5 106t33 94t29 73t19 43.5q-23 5 -45.5 7.5t-45.5 2.5q-59 0 -107.5 -10t-84 -30t-55 -50t-19.5 -70q0 -11 3 -20.5t7 -19.5l-60 -20q4 57 27 101.5t70.5 75.5t122 47
t179.5 16q55 0 110 -3t111 -3q29 0 49.5 1.5t35.5 4t24.5 5.5t17.5 5q-5 -6 -13 -15t-16.5 -19t-16 -19t-11.5 -13h-10q-75 0 -136.5 8t-120.5 15q-11 -21 -24 -51t-25 -63t-23 -65t-19 -57h192l-34 -35q-28 9 -52.5 12t-62.5 3h-50q-1 -5 -6.5 -24.5t-11.5 -48.5
t-10.5 -65.5t-4.5 -75.5q0 -14 1.5 -28.5t3.5 -28.5q14 -5 51 -15t102 -10q29 0 58.5 4.5t57.5 14.5zM193 -10q3 36 14.5 85.5t28 105t35.5 114t38.5 112t37 99.5t30.5 78h55q-20 -53 -44.5 -121t-48 -142t-42 -148.5t-25.5 -140.5q13 -11 22 -16t29 -16zM488 711
q-14 0 -25 10t-11 26q0 14 11 25t25 11q15 0 25.5 -9.5t10.5 -26.5q0 -15 -10.5 -25.5t-25.5 -10.5zM631 711q-15 0 -25.5 10.5t-10.5 25.5q0 14 10.5 25t25.5 11t25.5 -9.5t10.5 -26.5q0 -15 -10.5 -25.5t-25.5 -10.5z" />
    <glyph glyph-name="afii10071" unicode="&#x451;" horiz-adv-x="389" 
d="M478 235q-12 -16 -30 -40.5t-42 -52.5t-54 -56t-65 -50.5t-75.5 -36.5t-84.5 -14q-58 0 -88 29.5t-30 83.5q0 33 12 70.5t32.5 75t48.5 72t60 61t66 42.5t67 16q26 0 44.5 -16.5t18.5 -49.5q0 -27 -17 -58.5t-46 -59.5t-68 -46.5t-83 -18.5q-27 0 -56 8q-6 -20 -10 -40
t-4 -40q0 -48 24 -68.5t67 -20.5q56 0 107.5 29t93.5 68t73 78t47 60zM263 415q-31 0 -58 -23.5t-49 -54t-36.5 -60.5t-19.5 -42q4 -3 12.5 -7.5t20 -9.5t25.5 -8.5t29 -3.5q24 0 45.5 14.5t37 37t24.5 50.5t9 54q0 20 -10 36.5t-30 16.5zM210 546q-14 0 -25 10t-11 26
q0 14 11 25t25 11q15 0 25.5 -9.5t10.5 -26.5q0 -15 -10.5 -25.5t-25.5 -10.5zM353 546q-15 0 -25.5 10.5t-10.5 25.5q0 14 10.5 25t25.5 11t25.5 -9.5t10.5 -26.5q0 -15 -10.5 -25.5t-25.5 -10.5z" />
    <glyph glyph-name="afii10048" unicode="&#x42e;" horiz-adv-x="1096" 
d="M186 -10q0 35 12 88.5t30 115t41 125t44 119.5t39 98.5t27 61.5q-8 1 -16.5 1.5t-16.5 0.5q-46 0 -89.5 -9.5t-77.5 -28.5t-54.5 -48t-20.5 -68q0 -11 1.5 -21t3.5 -21l-60 -20q4 66 31 110.5t74.5 72t115.5 41t155 17.5h65q0 -8 -23.5 -60.5t-54.5 -140.5
q-10 -28 -18 -55.5t-16 -54.5l100 6q18 61 53 119t82 102.5t104 71.5t121 27q98 0 154 -54t56 -151q0 -77 -30.5 -156.5t-82.5 -145t-121.5 -107t-148.5 -41.5q-94 0 -150.5 55t-56.5 156q0 47 12 98h-97q-14 -58 -21 -111t-7 -99q0 -21 4.5 -44t15.5 -40l-41 -10
q-6 17 -7 39t-1 37q0 43 9 96t23 109t31.5 110.5t34 101t30.5 80t22 47.5h-33q-9 -24 -24.5 -66.5t-33.5 -95t-36 -110.5t-33.5 -113.5t-26 -104.5t-12.5 -83q-1 -11 -1.5 -19.5t-1.5 -17.5zM722 87q-27 0 -50 13t-39.5 35.5t-25.5 53t-9 66.5q0 38 12 91t37.5 106
t66.5 98.5t98 69.5l-2 5q-48 -4 -96.5 -42t-87.5 -98t-63.5 -136t-24.5 -155q0 -39 8 -74.5t25 -62t42.5 -42t60.5 -15.5q58 0 112.5 37t95.5 98t66 137.5t25 156.5q0 37 -8 71.5t-23 61t-37.5 42.5t-51.5 16q-39 0 -78.5 -30t-71.5 -78t-52.5 -108.5t-20.5 -121.5
q0 -27 5 -54.5t16 -50t29 -36.5t44 -14q15 0 29 7.5t27 16.5l-58 -64v0z" />
    <glyph glyph-name="afii10077" unicode="&#x43b;" horiz-adv-x="381" 
d="M261 414h-15q-5 -10 -16.5 -45.5t-29.5 -83t-42.5 -100.5t-54 -97.5t-64.5 -73.5t-75 -29q-19 0 -35 11l25 49q10 -25 40 -25q28 0 56 26t53.5 66t48 88.5t39.5 93t28.5 79.5t15.5 49l93 13l-76 -239q-5 -16 -11.5 -36.5t-11.5 -40t-8.5 -35.5t-3.5 -23q0 -13 4 -22
t16 -9q18 0 41 14.5t47.5 37t49 50t45.5 53t36 46t21 29.5l-8 -25q-1 -2 -2 -3.5t-3 -3.5q-9 -12 -25.5 -35t-38.5 -50t-47.5 -55t-52.5 -51t-53.5 -37.5t-49.5 -14.5q-26 0 -38 18t-12 37q0 12 6.5 34.5t12.5 41.5z" />
    <glyph glyph-name="afii10094" unicode="&#x44c;" horiz-adv-x="481" 
d="M37 422l154 13l-90 -282q-7 -20 -12 -45t-5 -41q0 -21 13.5 -39t52.5 -18q1 0 10 1.5t30 10.5q-11 6 -23 15.5t-22 22.5t-16.5 30.5t-6.5 38.5q0 34 11 73.5t33.5 73t58 55.5t83.5 22q21 0 38 -8.5t28.5 -22t17.5 -32t6 -37.5q0 -47 -22 -86.5t-50.5 -69.5t-55 -48.5
t-35.5 -22.5q5 -3 13 -4t15.5 -2t12.5 -1h5q45 0 89.5 28t83.5 66.5t69.5 77.5t46.5 62q2 4 4.5 7t4.5 5l-8 -25q-2 -3 -8 -11q-16 -23 -45.5 -61.5t-67.5 -76t-83 -64.5t-93 -27q-17 0 -34.5 2t-32.5 9q-14 -8 -41.5 -17t-68.5 -9q-38 0 -58 20.5t-20 49.5q0 20 7 47.5
t15 50.5l24 71q15 45 25 85t10 59q0 14 -6 21.5t-15 11.5t-20 5t-22 1h-5zM142 139q0 -22 8.5 -40.5t20 -32.5t23.5 -22.5t18 -9.5q22 16 43 35.5t37.5 42.5t26 50.5t9.5 61.5q0 15 -3 31t-9.5 29t-18.5 21t-30 8q-23 0 -45.5 -12t-40 -34.5t-28.5 -55t-11 -72.5z" />
    <glyph glyph-name="afii10093" unicode="&#x44b;" horiz-adv-x="670" 
d="M142 139q0 -22 8.5 -40.5t20 -32.5t23.5 -22.5t18 -9.5q22 16 43 35.5t37.5 42.5t26 50.5t9.5 61.5q0 15 -3 31t-9.5 29t-18.5 21t-30 8q-23 0 -45.5 -12t-40 -34.5t-28.5 -55t-11 -72.5zM191 435l-90 -282q-7 -20 -12 -45t-5 -41q0 -21 13.5 -39t52.5 -18q1 0 10 1.5
t30 10.5q-11 6 -23 15.5t-22 22.5t-16.5 30.5t-6.5 38.5q0 34 11 73.5t33.5 73t58 55.5t83.5 22q21 0 38 -8.5t28.5 -22t17.5 -32t6 -37.5q0 -47 -22 -86.5t-50.5 -69.5t-55 -48.5t-35.5 -22.5q2 -2 7 -1.5t8 0.5q33 6 66.5 36t64.5 71.5t58 89.5t48 89.5t34 72.5t15 38
l80 13l-76 -239q-5 -16 -11.5 -36.5t-11.5 -40t-8.5 -35.5t-3.5 -23q0 -13 4 -22t16 -9q18 0 41 14.5t47.5 37t49 50t45.5 53t36 46t21 29.5l-8 -25q-1 -2 -2 -3.5t-3 -3.5q-9 -12 -25.5 -35t-38.5 -50t-47.5 -55t-52.5 -51t-53.5 -37.5t-49.5 -14.5q-26 0 -38 18t-12 37
q0 12 6.5 34.5t12.5 41.5l95 299l-2 2q-3 -9 -18 -45.5t-39.5 -85.5t-57 -102.5t-69 -95.5t-76.5 -65t-80 -12q-14 -8 -41.5 -17t-68.5 -9q-38 0 -58 20.5t-20 49.5q0 20 7 47.5t15 50.5l24 71q15 45 25 85t10 59q0 14 -6 21.5t-15 11.5t-20 5t-22 1h-5l5 15z" />
    <glyph glyph-name="afii10078" unicode="&#x43c;" horiz-adv-x="635" 
d="M124 429l143 13v-357l248 342l62 10l-76 -239q-5 -16 -11 -36.5t-11.5 -40t-9 -35.5t-3.5 -23q0 -13 4 -22t16 -9q16 0 39.5 17.5t49.5 43.5t51.5 56t46.5 56t35.5 43.5t17.5 17.5l1 -1l-1 -3l-16 -25l-2 -2q-4 -6 -18.5 -27t-36 -48.5t-48 -58t-54 -56t-55 -42
t-50.5 -16.5q-26 0 -38 18t-12 37q0 12 6.5 34.5t12.5 41.5l76 241l-272 -371h-10v400q-2 -4 -8 -19.5t-9 -23.5q-11 -29 -25 -66t-32.5 -75t-41 -75t-49.5 -66.5t-60 -50t-71 -25.5l17 44q3 -1 9 -1q35 1 63.5 19.5t52.5 48.5t43.5 68t35.5 77.5t29 77t24 67.5q1 2 1 5
q0 11 -16 15.5t-33 4.5h-20z" />
    <glyph glyph-name="afii10090" unicode="&#x448;" horiz-adv-x="774" 
d="M-70 -112q153 45 312 59t318 14h53.5t52.5 -1v-14q-26 2 -53 3t-55 1q-73 0 -149.5 -6.5t-150 -19t-141 -31t-122.5 -42.5l-65 37v0zM193 435l-95 -309q-5 -17 -11 -38.5t-6 -32.5q0 -10 8.5 -22.5t26.5 -12.5q31 0 62.5 27.5t59.5 69.5t52.5 92t43.5 95t30.5 77.5
t13.5 40.5l80 13l-76 -239q-5 -16 -11.5 -37t-12 -42t-9 -38t-3.5 -24q0 -13 11.5 -24t23.5 -11q31 0 62 27.5t59.5 69.5t53 92t43.5 94.5t30.5 77t14.5 40.5l80 13l-76 -239q-5 -16 -11.5 -36.5t-11.5 -40t-8.5 -35.5t-3.5 -23q0 -13 4 -22t16 -9q18 0 41 14.5t47.5 37
t49 50t45.5 53t36 46t21 29.5l-8 -25q-1 -2 -2 -3.5t-3 -3.5q-9 -12 -25.5 -35t-38.5 -50t-47.5 -55t-52.5 -51t-53.5 -37.5t-49.5 -14.5q-26 0 -38 18t-12 37q0 12 6.5 34.5t12.5 41.5l95 299l-2 2q-3 -10 -16.5 -49.5t-37.5 -93.5t-58.5 -115t-80.5 -114
q-26 -26 -56.5 -42.5t-77.5 -16.5q-26 0 -38.5 18t-12.5 37q0 12 6.5 34.5t12.5 41.5l95 299l-2 2q-3 -9 -14.5 -44.5t-32 -83.5t-48 -101.5t-61 -98.5t-72 -74.5t-81.5 -29.5q-17 0 -28.5 6t-18.5 14.5t-9.5 18.5t-2.5 19q0 11 2.5 26t6 31t8 31t7.5 26l29 93q3 9 8 25
t10 33.5t8.5 34t3.5 27.5q0 21 -11.5 29t-36.5 8h-19l5 15z" />
    <glyph glyph-name="afii10091" unicode="&#x449;" horiz-adv-x="774" 
d="M-70 -112q153 45 312 59t318 14h53.5t52.5 -1v-14q-26 2 -53 3t-55 1q-73 0 -149.5 -6.5t-150 -19t-141 -31t-122.5 -42.5zM193 435l-95 -309q-5 -17 -11 -38.5t-6 -32.5q0 -10 8.5 -22.5t26.5 -12.5q31 0 62.5 27.5t59.5 69.5t52.5 92t43.5 95t30.5 77.5t13.5 40.5
l80 13l-76 -239q-5 -16 -11.5 -37t-12 -42t-9 -38t-3.5 -24q0 -13 11.5 -24t23.5 -11q31 0 62 27.5t59.5 69.5t53 92t43.5 94.5t30.5 77t14.5 40.5l80 13l-76 -239q-5 -16 -11.5 -36.5t-11.5 -40t-8.5 -35.5t-3.5 -23q0 -13 4 -22t16 -9q14 0 31.5 9.5t36.5 25t39 35.5
t39 41l1 2v-1q33 38 59 71.5t34 46.5l-8 -25q-1 -2 -2 -3.5t-3 -3.5q-10 -14 -30 -38.5t-45 -60.5q-29 -42 -39 -92t-15 -103l-1 -12l-47 -28q15 61 32.5 108.5t38.5 91.5q-20 -21 -40.5 -41t-41.5 -35t-41 -24t-38 -9q-26 0 -38 18t-12 37q0 12 6.5 34.5t12.5 41.5l95 299
l-2 2q-3 -10 -16.5 -49.5t-37.5 -93.5t-58.5 -115t-80.5 -114q-26 -26 -56.5 -42.5t-77.5 -16.5q-26 0 -38.5 18t-12.5 37q0 12 6.5 34.5t12.5 41.5l95 299l-2 2q-3 -9 -14.5 -44.5t-32 -83.5t-48 -101.5t-61 -98.5t-72 -74.5t-81.5 -29.5q-17 0 -28.5 6t-18.5 14.5
t-9.5 18.5t-2.5 19q0 11 2.5 26t6 31t8 31t7.5 26l29 93q3 9 8 25t10 33.5t8.5 34t3.5 27.5q0 21 -11.5 29t-36.5 8h-19l5 15z" />
    <glyph glyph-name="afii10096" unicode="&#x44e;" horiz-adv-x="617" 
d="M404 403q-24 -11 -53 -39t-54 -67t-42 -87t-17 -100q0 -39 17 -64.5t62 -25.5q8 0 16 1.5t16 3.5q-11 9 -20 19.5t-16.5 25t-11.5 34t-4 47.5q0 46 9 84.5t24.5 69.5t35 53.5t40.5 37.5zM312 171q0 -56 17.5 -87t42.5 -48q13 10 36 35.5t45 62t38 81t16 92.5
q0 38 -15.5 65.5t-47.5 27.5q-29 0 -53 -23.5t-41.5 -58t-27.5 -74.5t-10 -73zM207 435l-64 -207l77 8q21 39 49.5 74.5t62.5 63.5t72 44.5t77 16.5q47 0 71.5 -27.5t24.5 -72.5q0 -50 -22 -99.5t-52.5 -91.5t-62 -73t-50.5 -44q9 -3 18.5 -5t18.5 -2q47 0 92 27.5t84 65.5
t69 77t47 63q4 7 9 12l-8 -25q-5 -8 -20 -29t-36.5 -47.5t-49 -55.5t-58.5 -53t-64.5 -39.5t-66.5 -15.5q-15 0 -30 4t-28 9q-9 -5 -34.5 -16.5t-61.5 -11.5q-46 0 -69.5 29t-23.5 80q0 28 8.5 60t24.5 64l-76 -14l-64 -207l-65 -12l82 265q3 9 8 26t10 36t8.5 36.5
t3.5 28.5q0 30 -48 30h-19l5 15z" />
    <glyph glyph-name="afii10092" unicode="&#x44a;" horiz-adv-x="481" 
d="M142 139q0 -22 8.5 -40.5t20 -32.5t23.5 -22.5t18 -9.5q22 16 43 35.5t37.5 42.5t26 50.5t9.5 61.5q0 15 -3 31t-9.5 29t-18.5 21t-30 8q-23 0 -45.5 -12t-40 -34.5t-28.5 -55t-11 -72.5zM8 494v-6q0 -23 10 -44t31 -21h3l139 12l-90 -282q-7 -20 -12 -45t-5 -41
q0 -21 13.5 -39t52.5 -18q1 0 10 1.5t30 10.5q-11 6 -23 15.5t-22 22.5t-16.5 30.5t-6.5 38.5q0 34 11 73.5t33.5 73t58 55.5t83.5 22q21 0 38 -8.5t28.5 -22t17.5 -32t6 -37.5q0 -47 -22 -86.5t-50.5 -69.5t-55 -48.5t-35.5 -22.5q5 -3 13 -4t15.5 -2t12.5 -1h5
q45 0 89.5 28t83.5 66.5t69.5 77.5t46.5 62q2 4 4.5 7t4.5 5l-8 -25q-2 -3 -8 -11q-16 -23 -45.5 -61.5t-67.5 -76t-83 -64.5t-93 -27q-17 0 -34.5 2t-32.5 9q-14 -8 -41.5 -17t-68.5 -9q-38 0 -58 20.5t-20 49.5q0 20 7 47.5t15 50.5l24 71q7 22 14 44.5t12 42.5t8 36t3 25
q0 28 -13.5 34t-35.5 6q-38 0 -58 13.5t-26 38.5z" />
    <glyph glyph-name="afii10072" unicode="&#x436;" horiz-adv-x="793" 
d="M143 209q0 -44 9.5 -66t17.5 -33l1 -2q15 16 32 41t32 56t25 67t10 74q0 10 -1.5 21.5t-5 21t-9.5 15.5t-16 6q-15 0 -31.5 -19t-31 -48.5t-23.5 -65t-9 -68.5zM-24 55q19 -25 56 -25q21 0 39.5 7t34.5 17.5t29.5 21.5t22.5 20l4 3q-2 2 -3 4q-8 12 -19.5 36.5
t-11.5 74.5q0 29 9 67.5t26.5 72.5t42.5 57.5t58 23.5q29 0 42.5 -23.5t13.5 -51.5q0 -44 -18 -87t-41 -79.5t-46.5 -63t-33.5 -37.5q5 -6 19 -15t43 -9q28 0 56 14l108 346l61 6l-93 -295q23 24 43 49.5t34 46.5q20 37 47.5 73t61.5 64t72.5 45t79.5 17q35 0 57 -7.5
t36 -12.5l-27 -62l-2 3q-5 7 -12.5 16.5t-18.5 18t-26 14t-35 5.5q-29 0 -55 -15t-49 -39t-41.5 -55t-31.5 -63t-20.5 -63t-7.5 -55q0 -16 3 -33t12.5 -30.5t28 -22.5t49.5 -9q53 0 103 29t92 68.5t73 80t47 62.5l-9 -25q-10 -15 -27.5 -40t-42 -53.5t-55.5 -57t-67 -52
t-76.5 -38t-83.5 -14.5q-32 0 -54 9t-36 25t-20.5 36t-6.5 43q0 41 22 96q-13 -17 -29 -36.5t-34 -36.5l-40 -127l-61 -9l27 85q-27 -11 -53 -11q-40 0 -70 27l-5 -5q-9 -9 -26.5 -25t-41 -32t-51.5 -27.5t-57 -11.5q-39 0 -64 22z" />
    <glyph glyph-name="afii10105" unicode="&#x458;" horiz-adv-x="222" 
d="M72 28q-19 -60 -39.5 -110.5t-47 -86.5t-59 -56t-75.5 -20q-44 0 -64.5 6t-36.5 14l31 51q3 -7 9.5 -16.5t17.5 -18.5t26.5 -15t36.5 -6q22 0 39.5 16t31 41.5t24.5 58t22 65.5l90 284q13 45 23 80.5t10 55.5q0 17 -10 27t-39 10h-22l5 15l157 12zM175 638q0 20 13 34
t32 14t32.5 -13.5t13.5 -32.5t-13 -32t-32 -13q-18 0 -32 12t-14 31z" />
    <glyph glyph-name="afii10095" unicode="&#x44d;" horiz-adv-x="365" 
d="M70 358q38 35 80 56t87 21q47 0 71.5 -27.5t24.5 -72.5q0 -50 -22 -99.5t-52.5 -91.5t-62 -73t-50.5 -44q-25 -17 -54 -29.5t-65 -12.5q-43 0 -68 28l41 54q8 -22 25 -34.5t48 -12.5q13 0 22.5 2.5t17.5 5.5q8 4 15 8q10 8 27.5 27t36 45.5t35.5 59.5t27 70
q-49 20 -104 20q-23 0 -42.5 -4t-34.5 -14l-15 37q22 7 51 7q36 0 74.5 -10t73.5 -23q6 27 6 56q0 19 -4 37.5t-11.5 33.5t-19.5 24t-28 9q-21 0 -46.5 -14.5t-52.5 -38.5h-31z" />
    <glyph glyph-name="afii10054" unicode="&#x405;" horiz-adv-x="481" 
d="M198 587q-8 -11 -20.5 -34.5t-12.5 -58.5q0 -31 14 -59.5t35 -55t45 -53t45 -54.5t35 -58.5t14 -65.5q0 -20 -4.5 -35t-11.5 -27t-14 -20.5t-12 -14.5q15 2 30.5 9.5t28 21t20 32t7.5 42.5q0 36 -15 67.5t-38 60.5t-49.5 56.5t-49.5 55.5t-38 57.5t-15 62.5q0 21 6.5 43
t22 40t40.5 29.5t62 11.5q25 0 46.5 -4.5t38 -11t28 -13t18.5 -10.5l-25 -63q-3 6 -10 19t-20 26t-33 22.5t-48 9.5q-29 0 -49 -10t-33 -25.5t-18.5 -34t-5.5 -36.5q0 -29 15 -56.5t37 -55t48 -54.5t48 -56.5t37 -62t15 -68.5q0 -34 -13.5 -58.5t-33.5 -40.5t-44 -24.5
t-46 -9.5q-11 -10 -40.5 -24t-81.5 -14q-38 0 -72 10t-60.5 28.5t-42 44.5t-15.5 59v11l65 50q-4 -12 -7 -24.5t-3 -26.5q0 -24 10 -48.5t29.5 -44t47 -32t62.5 -12.5t59 12.5t39 32t21.5 43.5t6.5 46q0 34 -13 63t-33 55.5t-43 52t-43 52t-33 56t-13 64.5q0 33 10 54t15 29
z" />
    <glyph glyph-name="afii10033" unicode="&#x41f;" horiz-adv-x="719" 
d="M324 -11q-11 41 -11 83q0 39 9.5 89.5t24 104t32 107t33.5 98.5t29 78t18 46q-20 5 -40 7.5t-41 2.5q-59 0 -107.5 -10t-84 -30t-55 -50t-19.5 -70q0 -11 3 -20.5t7 -19.5l-60 -20q4 57 27 101.5t70.5 75.5t122 47t179.5 16q27 0 58.5 -1t63.5 -2t63.5 -2t59.5 -1
q29 0 49.5 1.5t35.5 4t24.5 5.5t17.5 5q-5 -6 -13 -15t-16.5 -19t-16 -19t-11.5 -13h-10q-78 0 -154 8t-137 15q-11 -22 -23 -55t-25 -70.5t-25.5 -77t-23.5 -74.5q-3 -8 -9.5 -28.5t-12.5 -49.5t-10.5 -66t-4.5 -79q0 -24 4.5 -47t18.5 -49zM176 -100q3 42 14.5 99
t28.5 121t38 131t41.5 129t39 115t32.5 89h55q-16 -41 -35 -94.5t-38.5 -112t-38 -119.5t-33 -117.5t-23 -106.5t-8.5 -86q0 -5 0.5 -10.5t1.5 -12.5zM689 542q-4 -8 -14.5 -38t-24 -72.5t-28.5 -94.5t-27 -104.5t-20 -101t-8 -85.5q0 -17 6 -25.5t15.5 -13t21.5 -5t23 -0.5
l-5 -20l-152 -5q7 58 23.5 133.5t38.5 153.5t48 151t52 127h51z" />
    <glyph glyph-name="afii61352" unicode="&#x2116;" horiz-adv-x="1174" 
d="M190 -10q4 37 15.5 88.5t28.5 109t37 117.5t40.5 115.5t40 102t34.5 77.5h-11q-56 0 -104.5 -9t-84 -28.5t-56 -49t-20.5 -70.5q0 -10 1.5 -19t3.5 -18l-60 -21q0 51 18 88.5t48 64t69 43t81 26t84.5 13.5t78.5 5q7 -61 27 -131t48 -140t62.5 -135.5t70.5 -118.5h2
q0 9 1 18.5t3 18.5q-35 49 -66 108.5t-56 123.5t-41.5 128t-22.5 122l35 16q-1 -8 -2 -15.5t-1 -16.5q0 -68 20 -138.5t46.5 -131.5t52.5 -107.5t39 -65.5q2 11 9 39.5t18 68.5t27.5 87.5t37.5 95.5t47.5 93t59 79.5t70.5 55.5t82 21q24 0 41.5 -6.5t28.5 -15.5t16 -19.5
t6 -17.5l-75 -43q1 6 3 12.5t2 12.5q0 18 -14 30t-32 12q-38 0 -72.5 -25.5t-64.5 -68.5t-55.5 -98.5t-46 -115t-36.5 -118.5t-27 -109.5t-17 -87.5t-6 -52q-46 49 -88 118t-77.5 144.5t-62 150t-41.5 134.5h-2q-5 -13 -17 -48t-27.5 -82.5t-31.5 -102.5t-29.5 -107.5
t-22 -99t-8.5 -75.5q0 -5 1 -11t2 -11zM1207 293q-7 -9 -29 -37t-53.5 -58t-69.5 -53.5t-75 -23.5q-14 0 -26.5 3t-24.5 8q-6 -3 -25.5 -10.5t-48.5 -7.5q-35 0 -53.5 20t-18.5 54q0 36 20.5 78.5t53.5 79.5t75.5 62t87.5 25q35 0 55 -19t20 -54q0 -36 -17 -71t-41 -64
t-48.5 -51t-39.5 -31q14 -7 32 -7q37 0 74 22.5t68.5 51.5t54.5 58t34 43zM959 410q-18 -8 -40 -28t-41 -48t-32 -62.5t-13 -72.5q0 -29 13 -47t45 -18q14 0 24 6q-20 13 -33 31t-13 57q0 31 8.5 59t22 51t29.5 40t32 27zM889 243q0 -35 15 -58.5t32 -34.5q10 7 26.5 25
t32.5 43.5t28 56.5t12 66q0 29 -11 48t-33 19q-21 0 -39.5 -17.5t-32.5 -42.5t-22 -54t-8 -51z" />
    <glyph glyph-name="afii10097" unicode="&#x44f;" horiz-adv-x="448" 
d="M94 282q0 -32 16 -51.5t40 -19.5q38 0 64.5 23.5t44 54t26.5 60t12 41.5q-11 5 -34.5 12.5t-55.5 7.5q-51 0 -82 -36t-31 -92zM341 429h-15q-5 -10 -17 -45.5t-30.5 -83t-44.5 -100.5t-58.5 -97.5t-71.5 -73.5t-85 -29q-19 0 -35 11l25 49q10 -25 40 -25q22 0 48.5 17
t52.5 44.5t49.5 63.5t40.5 74q-20 -23 -49 -43t-67 -20q-22 0 -38 8.5t-26.5 21.5t-15.5 29.5t-5 33.5q0 32 18.5 63t49.5 55t71.5 38.5t85.5 14.5q12 0 24.5 -1t24.5 -3q1 2 1 3t1 3l93 13l-76 -239q-5 -16 -11.5 -36.5t-11.5 -40t-8.5 -35.5t-3.5 -23q0 -13 4 -22t16 -9
q18 0 41 14.5t47.5 37t49 50t45.5 53t36 46t21 29.5l-8 -25q-1 -2 -2 -3.5t-3 -3.5q-9 -12 -25.5 -35t-38.5 -50t-47.5 -55t-52.5 -51t-53.5 -37.5t-49.5 -14.5q-26 0 -38 18t-12 37q0 12 6.5 34.5t12.5 41.5z" />
    <glyph glyph-name="afii10102" unicode="&#x455;" horiz-adv-x="426" 
d="M518 240q-5 -8 -19.5 -28.5t-35.5 -46t-47 -53.5t-54.5 -50.5t-58.5 -37.5t-58 -15q-5 0 -10 0.5t-10 0.5q-19 -11 -40 -18t-43 -7q-27 0 -54 9.5t-48 27.5t-34 44.5t-13 61.5q0 32 10 55t25.5 39.5t33.5 27.5t33 18l54 -32q-21 -3 -41 -12t-35.5 -24t-25 -36.5
t-9.5 -48.5q0 -25 9 -46t24.5 -36.5t36.5 -24t44 -8.5q39 0 63.5 25t24.5 66q0 36 -12 68t-27 61q-14 29 -26.5 58t-12.5 58q0 19 7.5 36.5t22 31.5t34.5 22.5t45 8.5q19 0 33.5 -4.5t25.5 -10.5t19 -13t13 -12l-32 -55q-1 7 -4.5 20.5t-11.5 26.5t-21 23t-33 10
q-23 0 -35.5 -15.5t-12.5 -34.5q0 -25 13.5 -54.5t30.5 -62.5q17 -32 30.5 -66t13.5 -67q0 -30 -15 -51.5t-29 -33.5q4 0 7.5 -0.5t7.5 -0.5q22 0 47.5 15t52 38t52.5 51t47 53.5t36 45.5l21 28z" />
    <glyph glyph-name="afii10018" unicode="&#x411;" horiz-adv-x="778" 
d="M349 129q0 -36 9.5 -60.5t26 -40t38.5 -22t48 -6.5q35 0 62.5 12.5t46 34t28.5 50.5t10 61q0 38 -12 66.5t-31 48t-43 32t-47 19.5t-43.5 9.5t-32.5 2.5q-6 0 -12 -0.5t-11 -1.5q-3 -10 -9.5 -32.5t-12.5 -51t-10.5 -60.5t-4.5 -61zM62 385q4 57 27 101.5t70.5 75.5
t122 47t179.5 16q55 0 110 -3t111 -3q55 0 82.5 5t42.5 10l2 1q-5 -6 -13 -15t-16.5 -19t-16 -19t-11.5 -13h-10q-78 0 -142 8t-125 15q-10 -20 -20.5 -47.5t-21.5 -59.5t-22 -66.5t-21 -68.5l19 1q41 0 90 -11t91 -34t70 -58t28 -84q0 -34 -16 -66t-45 -57t-69 -40.5
t-87 -15.5q-69 0 -105.5 34t-36.5 113q0 35 9.5 88t26.5 110q14 46 28.5 89t27.5 78.5t23 61t15 36.5q-20 5 -40 7.5t-41 2.5q-59 0 -107.5 -10t-84 -30t-55 -50t-19.5 -70q0 -11 3 -20.5t7 -19.5l-60 -20v0zM432 585q-23 -59 -48.5 -128t-47.5 -141t-39 -143.5t-24 -135.5
q12 -11 24 -17.5t39 -19.5l-143 -10q4 33 15 80.5t26.5 103t34.5 114t38.5 114t38 103t33.5 80.5h53z" />
    <glyph glyph-name="afii10046" unicode="&#x42c;" horiz-adv-x="597" 
d="M221 129q0 -36 9.5 -60.5t26 -40t38.5 -22t48 -6.5q35 0 62.5 12.5t46 34t28.5 50.5t10 61q0 38 -12 66.5t-31 48t-43 32t-47 19.5t-43.5 9.5t-32.5 2.5q-6 0 -12 -0.5t-11 -1.5q-3 -10 -9.5 -32.5t-12.5 -51t-10.5 -60.5t-4.5 -61zM342 624h20l-15 -32q-9 -20 -20 -47.5
t-22 -59.5t-22 -66.5t-21 -68.5l19 1q41 0 90 -11t91 -34t70 -58t28 -84q0 -34 -16 -66t-45 -57t-69 -40.5t-87 -15.5q-69 0 -105.5 34t-36.5 113q0 35 9.5 88t26.5 110q14 46 28.5 89t27.5 78.5t23 61t15 36.5zM321 624q-23 -59 -51 -134t-53.5 -154.5t-45 -157
t-26.5 -141.5q12 -11 24 -17.5t39 -19.5l-143 -10q4 33 16 83.5t30 110t39 123.5t42 123.5t41 110t35 83.5h53z" />
    <glyph glyph-name="afii10029" unicode="&#x41b;" horiz-adv-x="656" 
d="M615 647q-8 -18 -23 -57.5t-29 -91t-24.5 -110.5t-10.5 -116q0 -74 13 -115.5t25 -60.5l-25 -24q-11 25 -22 64.5t-11 110.5q0 58 9.5 117.5t23 111t27.5 92t22 60.5l-33 -6q-9 -27 -23.5 -74.5t-28 -105.5t-23 -121.5t-9.5 -121.5q0 -62 5 -98t17 -55t31.5 -24t47.5 -6
l-5 -16l-137 -5q-3 12 -7.5 23.5t-8.5 27t-6.5 36.5t-2.5 50q0 33 6.5 88t18 119t27.5 129t35 119q-41 -39 -85.5 -87.5t-88.5 -103t-86 -111.5t-77.5 -114.5t-64 -112t-44.5 -102.5l-77 -17q45 90 108 181.5t134.5 179.5t147 169.5t145.5 152.5z" />
    <glyph glyph-name="afii10021" unicode="&#x414;" horiz-adv-x="889" 
d="M192 -10q3 36 14 85.5t26.5 105t34 114t37 112t35.5 99.5t30 78h55q-20 -53 -44.5 -121t-48 -142t-42 -148.5t-25.5 -140.5q13 -11 22 -16t29 -16zM57 383q0 67 30 113t85 74.5t132 41.5t172 13q78 0 146.5 -11t119 -39.5t79.5 -77.5t29 -124q0 -73 -31.5 -142.5
t-84.5 -124t-122 -88t-143 -33.5q-39 0 -66 11t-44 30.5t-25 45.5t-8 55q0 56 14.5 118.5t34 119t40 101t31.5 64.5l46 11q-17 -14 -34 -42.5t-33.5 -65t-30.5 -79t-25 -84t-17 -79t-6 -64.5q0 -23 6 -45t20.5 -39t39.5 -27.5t63 -10.5q67 0 122 31t94.5 82t61.5 116t22 133
q0 67 -27 112.5t-74.5 73.5t-112 40t-139.5 12q-62 0 -118.5 -8t-100.5 -26.5t-70 -50t-26 -78.5q0 -21 10 -40z" />
    <glyph glyph-name="afii10073" unicode="&#x437;" horiz-adv-x="519" 
d="M285 38q-7 1 -13 1.5t-12 0.5q-28 0 -64 -5t-73.5 -14.5t-73 -23.5t-63.5 -32t-45 -39.5t-17 -45.5q0 -23 11.5 -43t31.5 -35t47 -23.5t58 -8.5q72 0 120.5 58.5t85.5 182.5zM96 265q33 56 63 89.5t57.5 51.5t53 23.5t49.5 5.5q16 0 31 -3t26 -9.5t18 -18t7 -29.5
q0 -57 -48 -100.5t-130 -63.5q12 3 23.5 4t22.5 1q50 0 70 -25t20 -65q0 -26 -8 -60q40 10 80 31.5t75.5 49t66 58.5t52.5 60l-7 -19q-15 -21 -45.5 -52t-68.5 -61t-79 -53.5t-78 -30.5q-2 -8 -4.5 -17t-5.5 -17l-8 -26q-5 -14 -14 -37t-23.5 -49t-35 -52.5t-49 -47.5
t-66 -34.5t-85.5 -13.5q-39 0 -73 8t-59 22.5t-39.5 35t-14.5 46.5v2q1 32 25 58t62.5 46t85.5 34.5t93 24.5t86.5 15.5t65.5 8.5q6 31 6 57q0 43 -20 66t-65 23h-1q-3 0 -12.5 -2t-21.5 -6.5t-24 -11.5t-21 -17l11 33q34 4 66 17.5t58.5 35t45 49.5t24.5 62q0 19 -13.5 28
t-30.5 9q-15 0 -35.5 -4t-46 -20t-56 -48t-64.5 -87z" />
    <glyph glyph-name="afii10056" unicode="&#x407;" horiz-adv-x="500" 
d="M186 -10q0 35 12 88.5t30 115t41 125t44 119.5t39 98.5t27 61.5q-8 1 -16.5 1.5t-16.5 0.5q-46 0 -89.5 -9.5t-77.5 -28.5t-54.5 -48t-20.5 -68q0 -11 1.5 -21t3.5 -21l-60 -20q4 66 31 110.5t74.5 72t115.5 41t155 17.5h65q0 -8 -23.5 -60.5t-54.5 -140.5
q-32 -93 -49.5 -180.5t-17.5 -159.5q0 -21 4.5 -44t15.5 -40l-41 -10q-6 17 -7 39t-1 37q0 43 9 96t23 109t31.5 110.5t34 101t30.5 80t22 47.5h-33q-9 -24 -24.5 -66.5t-33.5 -95t-36 -110.5t-33.5 -113.5t-26 -104.5t-12.5 -83q-1 -11 -1.5 -19.5t-1.5 -17.5zM365 711
q-14 0 -25 10t-11 26q0 14 11 25t25 11q15 0 25.5 -9.5t10.5 -26.5q0 -15 -10.5 -25.5t-25.5 -10.5zM508 711q-15 0 -25.5 10.5t-10.5 25.5q0 14 10.5 25t25.5 11t25.5 -9.5t10.5 -26.5q0 -15 -10.5 -25.5t-25.5 -10.5z" />
    <glyph glyph-name="afii10104" unicode="&#x457;" horiz-adv-x="241" 
d="M336 235q-6 -8 -21.5 -30t-37.5 -49.5t-49 -57.5t-55 -55.5t-56.5 -41.5t-52.5 -16q-26 0 -38 18t-12 37q0 12 6.5 34.5t12.5 41.5l38 119q13 45 23 80.5t10 55.5q0 17 -10 27t-39 10h-22l5 15l157 12l-76 -239q-5 -16 -11.5 -36.5t-11.5 -40t-8.5 -35.5t-3.5 -23
q0 -13 4 -22t16 -9q18 0 41 14.5t47.5 37t49 50t45.5 53t36 46t21 29.5zM126 546q-14 0 -25 10t-11 26q0 14 11 25t25 11q15 0 25.5 -9.5t10.5 -26.5q0 -15 -10.5 -25.5t-25.5 -10.5zM269 546q-15 0 -25.5 10.5t-10.5 25.5q0 14 10.5 25t25.5 11t25.5 -9.5t10.5 -26.5
q0 -15 -10.5 -25.5t-25.5 -10.5z" />
    <glyph glyph-name="Sacute" unicode="&#x15a;" horiz-adv-x="481" 
d="M198 587q-8 -11 -20.5 -34.5t-12.5 -58.5q0 -31 14 -59.5t35 -55t45 -53t45 -54.5t35 -58.5t14 -65.5q0 -20 -4.5 -35t-11.5 -27t-14 -20.5t-12 -14.5q15 2 30.5 9.5t28 21t20 32t7.5 42.5q0 36 -15 67.5t-38 60.5t-49.5 56.5t-49.5 55.5t-38 57.5t-15 62.5q0 21 6.5 43
t22 40t40.5 29.5t62 11.5q25 0 46.5 -4.5t38 -11t28 -13t18.5 -10.5l-25 -63q-3 6 -10 19t-20 26t-33 22.5t-48 9.5q-29 0 -49 -10t-33 -25.5t-18.5 -34t-5.5 -36.5q0 -29 15 -56.5t37 -55t48 -54.5t48 -56.5t37 -62t15 -68.5q0 -34 -13.5 -58.5t-33.5 -40.5t-44 -24.5
t-46 -9.5q-11 -10 -40.5 -24t-81.5 -14q-38 0 -72 10t-60.5 28.5t-42 44.5t-15.5 59v11l65 50q-4 -12 -7 -24.5t-3 -26.5q0 -24 10 -48.5t29.5 -44t47 -32t62.5 -12.5t59 12.5t39 32t21.5 43.5t6.5 46q0 34 -13 63t-33 55.5t-43 52t-43 52t-33 56t-13 64.5q0 33 10 54t15 29
zM230 724l170 124l15 -61l-175 -77z" />
    <glyph glyph-name="afii10025" unicode="&#x417;" horiz-adv-x="565" 
d="M360 360q47 -17 77.5 -53.5t30.5 -93.5q0 -82 -72 -145q22 11 43.5 28.5t37.5 38.5t26 44t10 46q0 22 -6.5 44.5t-19 42.5t-32 36t-45.5 25q-14 -4 -26.5 -8.5t-23.5 -4.5zM449 394q33 -19 57 -62t24 -100q0 -36 -18 -69t-48 -61t-69.5 -50t-83.5 -37q-53 -22 -108 -22
q-72 0 -122.5 32.5t-71.5 93.5l67 73q1 -38 10 -71t25.5 -58.5t41.5 -40t59 -14.5q41 0 76.5 17t62 45t41.5 62.5t15 70.5q0 39 -19.5 65.5t-48 42.5t-61.5 23t-60 7l20 31l55 -4q43 3 77.5 16.5t58.5 35.5t36.5 50.5t12.5 60.5q0 22 -8.5 39t-22.5 28.5t-31.5 17.5t-35.5 6
q-34 0 -66 -11t-57.5 -30t-41 -46t-15.5 -58q0 -11 1.5 -21t3.5 -21l-60 -20q5 78 41 125.5t101 75.5q26 11 53 17.5t54 6.5q75 0 110 -28.5t35 -75.5t-24 -83t-66 -59z" />
    <glyph glyph-name="afii10047" unicode="&#x42d;" horiz-adv-x="652" 
d="M221 557q45 38 97 60.5t109 22.5q98 0 154 -54t56 -151q0 -77 -30.5 -156.5t-82.5 -145t-121.5 -107t-148.5 -41.5q-72 0 -122.5 32.5t-71.5 93.5l67 73q1 -38 10 -71t25.5 -58.5t41.5 -40t59 -14.5q58 0 112.5 37t95.5 98t66 137.5t25 156.5q0 37 -8.5 72.5t-26 63
t-42.5 44t-58 16.5q-56 0 -107 -33t-89 -84l-10 49v0zM191 404q35 -2 73 -12t76.5 -25t76 -34t72.5 -38q14 51 14 100q0 25 -3.5 51.5t-12 49t-21 39t-30.5 22.5l-9 40q25 -3 45 -18t34 -38.5t21.5 -54t7.5 -64.5q0 -36 -12 -88.5t-36.5 -106t-60.5 -101t-84 -74.5l-6 6
q22 15 44 38t41.5 51.5t35.5 61.5t27 69q-27 17 -57.5 31.5t-62 25t-63 16.5t-58.5 6q-20 0 -42 -5z" />
    <glyph glyph-name="afii10024" unicode="&#x416;" horiz-adv-x="986" 
d="M329 640q43 -2 75 -20.5t53 -50t31 -73.5t10 -91v-44q29 81 57 150t48 114h99q-14 -27 -29.5 -64.5t-30.5 -77t-27.5 -77t-19.5 -65.5h9q11 11 36.5 38t60.5 60t78 68.5t88.5 65t91.5 48.5t87 19q19 0 37.5 -8t31.5 -22l-53 -54q-2 5 -6 12.5t-11.5 14.5t-18 12t-26.5 5
q-36 0 -73.5 -16t-73 -40.5t-67.5 -54.5t-57.5 -58t-43.5 -50.5t-25 -31.5q5 -18 12 -48t16.5 -64.5t21 -69t24 -63t26.5 -46t29 -17.5q45 0 90.5 26.5t84.5 63t69.5 74t47.5 59.5q4 5 6.5 8.5t4.5 5.5l-9 -22q-3 -5 -9 -12q-11 -15 -29.5 -39.5t-43 -53t-53.5 -57.5
t-61 -52t-65.5 -38t-66.5 -15q-21 0 -39.5 22.5t-34.5 57.5t-29 76.5t-22.5 79.5t-15.5 66.5t-8 38.5h-14q-5 -17 -11.5 -47.5t-13 -64.5t-11 -67.5t-4.5 -55.5q0 -16 5.5 -44t19.5 -51l-40 -10q-10 33 -10 69q0 43 7.5 92.5t20 101.5t29 104t33 99t33 86.5t29.5 67.5h-32
q-10 -24 -25 -66.5t-33 -95t-36 -110.5t-33.5 -113.5t-26 -104.5t-12.5 -83q-1 -11 -1.5 -19.5t-1.5 -17.5l-78 -10q0 38 13 95.5t33 123.5q0 6 -0.5 13.5t-0.5 20.5v32.5v51.5h-2q-6 -19 -22.5 -51.5t-41.5 -70.5t-58 -77t-72.5 -71t-84 -52t-93.5 -20q-32 0 -58 9
t-44 24.5t-27.5 35.5t-9.5 43q0 4 0.5 7.5t1.5 8.5l72 47q-5 -13 -9.5 -25.5t-4.5 -26.5q0 -35 25 -56.5t62 -21.5q39 0 81.5 17.5t82.5 46.5t76.5 66.5t63.5 79t43 83.5t16 79q0 38 -9 70.5t-26.5 56.5t-42.5 37.5t-57 13.5q-17 0 -32 -3z" />
    <glyph glyph-name="afii10055" unicode="&#x406;" horiz-adv-x="500" 
d="M186 -10q0 35 12 88.5t30 115t41 125t44 119.5t39 98.5t27 61.5q-8 1 -16.5 1.5t-16.5 0.5q-46 0 -89.5 -9.5t-77.5 -28.5t-54.5 -48t-20.5 -68q0 -11 1.5 -21t3.5 -21l-60 -20q4 66 31 110.5t74.5 72t115.5 41t155 17.5h65q0 -8 -23.5 -60.5t-54.5 -140.5
q-32 -93 -49.5 -180.5t-17.5 -159.5q0 -21 4.5 -44t15.5 -40l-41 -10q-6 17 -7 39t-1 37q0 43 9 96t23 109t31.5 110.5t34 101t30.5 80t22 47.5h-33q-9 -24 -24.5 -66.5t-33.5 -95t-36 -110.5t-33.5 -113.5t-26 -104.5t-12.5 -83q-1 -11 -1.5 -19.5t-1.5 -17.5z" />
    <glyph glyph-name="afii10103" unicode="&#x456;" horiz-adv-x="241" 
d="M336 235q-6 -8 -21.5 -30t-37.5 -49.5t-49 -57.5t-55 -55.5t-56.5 -41.5t-52.5 -16q-26 0 -38 18t-12 37q0 12 6.5 34.5t12.5 41.5l38 119q13 45 23 80.5t10 55.5q0 17 -10 27t-39 10h-22l5 15l157 12l-76 -239q-5 -16 -11.5 -36.5t-11.5 -40t-8.5 -35.5t-3.5 -23
q0 -13 4 -22t16 -9q18 0 41 14.5t47.5 37t49 50t45.5 53t36 46t21 29.5zM213 595q-22 0 -34 12t-12 31q0 20 12 34t34 14q19 0 32 -10.5t13 -33.5q0 -20 -13 -33.5t-32 -13.5z" />
    <glyph glyph-name="afii10041" unicode="&#x427;" horiz-adv-x="796" 
d="M686 610q-4 -18 -15 -55t-28.5 -82.5t-41 -94t-53.5 -88t-66.5 -65t-78.5 -25.5q-34 0 -60 13.5t-44 37t-27 55.5t-9 69q0 43 15.5 77.5t37.5 62.5t46 49t41 36h-23q-53 0 -102 -8.5t-86.5 -27t-60 -49t-22.5 -74.5q0 -10 1.5 -19t3.5 -18l-60 -20q0 64 29.5 109.5t82 75
t125 43t157.5 13.5q-48 -48 -78.5 -103t-31.5 -123v-3q0 -23 5.5 -47.5t17.5 -44t30 -32t43 -12.5q31 0 58.5 19.5t52 50.5t45 70.5t36.5 80.5t28 78.5t19 65.5h120q-4 -8 -18 -42.5t-32.5 -85t-39.5 -110.5t-38 -119.5t-28.5 -113t-11.5 -90.5q0 -17 6 -25.5t15.5 -13
t21.5 -5t23 -0.5l-5 -20l-152 -5q5 39 17 89.5t28 107t35.5 115.5t39.5 114t40 104t38 85h-46z" />
    <glyph glyph-name="afii10044" unicode="&#x42a;" horiz-adv-x="778" 
d="M349 129q0 -36 9.5 -60.5t26 -40t38.5 -22t48 -6.5q35 0 62.5 12.5t46 34t28.5 50.5t10 61q0 38 -12 66.5t-31 48t-43 32t-47 19.5t-43.5 9.5t-32.5 2.5q-6 0 -12 -0.5t-11 -1.5q-3 -10 -9.5 -32.5t-12.5 -51t-10.5 -60.5t-4.5 -61zM62 385q4 57 20.5 101t61.5 75
t126.5 47t213.5 16h6l-15 -32q-9 -20 -20 -47.5t-22 -59.5t-22 -66.5t-21 -68.5l19 1q41 0 90 -11t91 -34t70 -58t28 -84q0 -34 -16 -66t-45 -57t-69 -40.5t-87 -15.5q-69 0 -105.5 34t-36.5 113q0 35 9.5 88t26.5 110q14 46 28.5 89t27.5 78.5t23 61t15 36.5q-20 5 -40 7.5
t-41 2.5q-59 0 -107.5 -10t-84 -30t-55 -50t-19.5 -70q0 -11 3 -20.5t7 -19.5l-60 -20v0zM432 585q-23 -59 -48.5 -128t-47.5 -141t-39 -143.5t-24 -135.5q12 -11 24 -17.5t39 -19.5l-143 -10q4 33 15 80.5t26.5 103t34.5 114t38.5 114t38 103t33.5 80.5h53z" />
    <glyph glyph-name="Tcaron" unicode="&#x164;" horiz-adv-x="630" 
d="M34 404q0 30 12 69t41 74t77.5 59t120.5 24q100 0 184 -4t162 -4q15 0 38.5 0.5t49 1.5l51 2t44.5 2l-50 -56q-13 -2 -27.5 -2.5t-28.5 -0.5q-12 0 -43.5 2t-66.5 4t-66 4t-43 2q-7 -16 -19.5 -45.5t-26.5 -69t-28.5 -85.5t-26 -93.5t-19 -94.5t-7.5 -88q0 -27 4.5 -54
t15.5 -51l-40 -7q-6 17 -8 35.5t-2 37.5q0 43 9 94t22.5 104t30 104t32 94t28 74.5t18.5 44.5h-50q-42 0 -81.5 2t-81.5 2q-81 0 -128 -29.5t-47 -83.5q0 -17 2.5 -26.5t7.5 -20.5zM208 -10q4 42 15 92t26 103t32.5 107t35.5 104t34.5 93t29.5 75h54q-2 -5 -9 -24.5t-17 -48
t-22 -63t-23 -69.5q-32 -100 -48.5 -181t-26.5 -141q-2 -11 -2 -19.5t-1 -17.5zM410 840l15 9l61 -76l135 76l9 -13l-164 -128z" />
    <glyph glyph-name="Zacute" unicode="&#x179;" 
d="M130 130q3 29 19.5 64.5t41.5 73.5t56.5 78t65 78t66 71.5t59.5 60.5q-9 0 -37.5 4t-62.5 8.5t-67.5 8t-51.5 3.5q-27 0 -53.5 -6t-49.5 -18l59 81q22 3 45 3q38 0 67.5 -5.5t58.5 -11.5q29 -7 60.5 -12.5t73.5 -5.5q22 0 48 4t46 12l-33 -59q-54 -55 -93 -100
t-66.5 -82.5t-46.5 -69t-34 -58.5q-19 -34 -30.5 -59.5t-20 -45t-15.5 -35t-16 -28.5q-2 -2 -3.5 -4.5t-3.5 -5.5q6 -2 23 -7.5t39.5 -11.5t48 -10.5t48.5 -4.5q38 0 77.5 12.5t72.5 32.5l-39 -77q-23 -11 -47.5 -17t-48.5 -6q-36 0 -72.5 6t-66.5 14t-50.5 14.5t-25.5 8.5
q-7 -5 -16.5 -12.5t-23.5 -14.5t-32.5 -11.5t-42.5 -4.5q-48 0 -81 19t-33 50q0 18 8 30t20 19.5t25.5 10.5t24.5 3q20 0 47.5 -5t54 -12t47 -13t26.5 -8q9 9 20 30t24 49t27.5 59.5t30.5 62.5q22 44 54 88t63.5 81.5t59 66t41.5 40.5q-5 0 -8.5 -0.5t-8.5 -0.5
q-4 0 -12 0.5t-12 0.5q-34 -35 -77 -85.5t-83.5 -106t-71.5 -111t-41 -101.5zM-38 52q0 -23 27 -37.5t65 -14.5q42 0 63.5 12t35.5 22q-5 2 -24.5 9.5t-43.5 16t-48.5 15.5t-39.5 7q-14 0 -24.5 -8t-10.5 -22zM348 724l170 124l15 -61l-175 -77z" />
    <glyph glyph-name="Idotaccent" unicode="&#x130;" horiz-adv-x="500" 
d="M186 -10q0 35 12 88.5t30 115t41 125t44 119.5t39 98.5t27 61.5q-8 1 -16.5 1.5t-16.5 0.5q-46 0 -89.5 -9.5t-77.5 -28.5t-54.5 -48t-20.5 -68q0 -11 1.5 -21t3.5 -21l-60 -20q4 66 31 110.5t74.5 72t115.5 41t155 17.5h65q0 -8 -23.5 -60.5t-54.5 -140.5
q-32 -93 -49.5 -180.5t-17.5 -159.5q0 -21 4.5 -44t15.5 -40l-41 -10q-6 17 -7 39t-1 37q0 43 9 96t23 109t31.5 110.5t34 101t30.5 80t22 47.5h-33q-9 -24 -24.5 -66.5t-33.5 -95t-36 -110.5t-33.5 -113.5t-26 -104.5t-12.5 -83q-1 -11 -1.5 -19.5t-1.5 -17.5z" />
    <glyph glyph-name="Scedilla" unicode="&#x15e;" horiz-adv-x="481" 
d="M232 -128l-3 -2q-10 -7 -22.5 -13t-31.5 -6q-23 0 -39.5 11.5t-16.5 33.5q0 16 7.5 30t18 25.5t22 20.5t19.5 15q-8 -1 -16 -1.5t-17 -0.5q-38 0 -72 10t-60.5 28.5t-42 44.5t-15.5 59v11l65 50q-4 -12 -7 -24.5t-3 -26.5q0 -24 10 -48.5t29.5 -44t47 -32t62.5 -12.5
t59 12.5t39 32t21.5 43.5t6.5 46q0 34 -13 63t-33 55.5t-43 52t-43 52t-33 56t-13 64.5q0 33 10 54t15 29l58 27l-2 -4q-9 -14 -20 -35.5t-11 -53.5q0 -31 14 -59.5t35 -55t45 -53t45 -54.5t35 -58.5t14 -65.5t-13.5 -57t-24.5 -35l-4 -5q15 2 30.5 9.5t28 21t20 32
t7.5 42.5q0 36 -15 67.5t-38 60.5t-49.5 56.5t-49.5 55.5t-38 57.5t-15 62.5q0 21 6.5 43t22 40t40.5 29.5t62 11.5q25 0 46.5 -4.5t38 -11t28 -13t18.5 -10.5l-25 -63q-3 6 -10 19t-20 26t-33 22.5t-48 9.5q-29 0 -49 -10t-33 -25.5t-18.5 -34t-5.5 -36.5q0 -29 15 -56.5
t37 -55t48 -54.5t48 -56.5t37 -62t15 -68.5q0 -34 -13.5 -58.5t-33.5 -40.5t-44 -24.5t-46 -9.5q-8 -7 -28 -16t-40.5 -22t-36.5 -31.5t-16 -44.5q0 -19 11.5 -28.5t28.5 -9.5q8 0 15.5 3t15.5 8z" />
    <glyph glyph-name="Scedilla" unicode="&#xf6c1;" horiz-adv-x="481" 
d="M232 -128l-3 -2q-10 -7 -22.5 -13t-31.5 -6q-23 0 -39.5 11.5t-16.5 33.5q0 16 7.5 30t18 25.5t22 20.5t19.5 15q-8 -1 -16 -1.5t-17 -0.5q-38 0 -72 10t-60.5 28.5t-42 44.5t-15.5 59v11l65 50q-4 -12 -7 -24.5t-3 -26.5q0 -24 10 -48.5t29.5 -44t47 -32t62.5 -12.5
t59 12.5t39 32t21.5 43.5t6.5 46q0 34 -13 63t-33 55.5t-43 52t-43 52t-33 56t-13 64.5q0 33 10 54t15 29l58 27l-2 -4q-9 -14 -20 -35.5t-11 -53.5q0 -31 14 -59.5t35 -55t45 -53t45 -54.5t35 -58.5t14 -65.5t-13.5 -57t-24.5 -35l-4 -5q15 2 30.5 9.5t28 21t20 32
t7.5 42.5q0 36 -15 67.5t-38 60.5t-49.5 56.5t-49.5 55.5t-38 57.5t-15 62.5q0 21 6.5 43t22 40t40.5 29.5t62 11.5q25 0 46.5 -4.5t38 -11t28 -13t18.5 -10.5l-25 -63q-3 6 -10 19t-20 26t-33 22.5t-48 9.5q-29 0 -49 -10t-33 -25.5t-18.5 -34t-5.5 -36.5q0 -29 15 -56.5
t37 -55t48 -54.5t48 -56.5t37 -62t15 -68.5q0 -34 -13.5 -58.5t-33.5 -40.5t-44 -24.5t-46 -9.5q-8 -7 -28 -16t-40.5 -22t-36.5 -31.5t-16 -44.5q0 -19 11.5 -28.5t28.5 -9.5q8 0 15.5 3t15.5 8z" />
    <glyph glyph-name="Gbreve" unicode="&#x11e;" horiz-adv-x="667" 
d="M357 285l70 -4t70 -2q59 0 115 6q-26 -44 -46.5 -93.5t-37.5 -97t-32 -88t-30 -66.5q-44 -75 -101.5 -104t-114.5 -29q-44 0 -72 8t-45 19.5t-25.5 24t-13.5 22.5l63 38q-1 -5 -1.5 -8.5t-0.5 -8.5q0 -12 4.5 -26t16 -26t31.5 -20t51 -8q50 0 88 31.5t64 81.5
q17 33 32.5 72t31 80.5t30.5 82t30 75.5q2 4 3 7t3 7h-110q17 -20 29.5 -44.5t12.5 -50.5q0 -35 -16.5 -67.5t-45.5 -57t-68.5 -39.5t-86.5 -15t-86.5 14t-68 41t-44 66.5t-15.5 89.5t14 102.5t39 102t60.5 93t78.5 76t92 51.5t102 19q39 0 72.5 -6t60 -14.5t44 -16
l24.5 -10.5l-42 -97q-3 11 -11.5 31.5t-27.5 41t-50 36t-79 15.5q-45 0 -84.5 -19.5t-72 -52.5t-57.5 -76t-42.5 -89.5t-26.5 -94t-9 -88.5q0 -84 43 -134.5t115 -50.5q32 0 62.5 12.5t54 33t37.5 47.5t14 56q0 44 -27 69.5t-65 25.5q-8 0 -16.5 -1t-16.5 -3zM646 839
q-3 -13 -13 -36t-27 -45.5t-41 -39.5t-55 -17q-20 0 -34 8t-22.5 21.5t-12 31.5t-3.5 38q0 22 4 39h17q-1 -6 -1 -10.5v-9.5q0 -14 2.5 -28t9.5 -25t18.5 -18t29.5 -7q27 0 46.5 11.5t33 27.5t21.5 32.5t12 26.5h15z" />
    <glyph glyph-name="gbreve" unicode="&#x11f;" horiz-adv-x="519" 
d="M610 240q-11 -15 -29.5 -39t-42 -52t-51 -56t-56 -51t-56.5 -37.5t-53 -15.5q-5 -14 -14 -37t-23.5 -49t-35 -52.5t-49 -47.5t-66 -34.5t-85.5 -13.5q-39 0 -73.5 8t-59.5 23t-39.5 36t-14.5 47q0 30 19 54.5t45.5 42.5t54 30t45.5 19q-19 28 -19 65q0 34 13 74t35 79.5
t50.5 76t60.5 64.5t65 44.5t63 16.5q29 0 45 -20t16 -57q0 -14 -2.5 -27t-5.5 -26h10l38 125l66 5q-4 -11 -20.5 -58.5t-36.5 -116.5l-74 -245q42 7 83.5 35.5t79 66t70 78t55.5 70.5zM335 270q-3 -10 -13.5 -35t-26.5 -57t-38 -66t-49 -62t-58.5 -46.5t-66.5 -18.5
q-25 0 -45 20q-16 -6 -37 -16.5t-39.5 -26t-31.5 -36t-13 -46.5q0 -23 11.5 -43t31.5 -35t47 -23.5t58 -8.5q37 0 66 13.5t52 41.5t42.5 71.5t37.5 102.5l83 271h-11zM72 111q0 -13 2.5 -26.5t8.5 -24.5t16 -18t25 -7q21 0 44 14t45.5 36.5t43 52t36 61t24.5 62.5t9 57
q0 29 -16 53t-49 24q-36 0 -70 -30.5t-60.5 -74.5t-42.5 -93t-16 -86zM500 641q-3 -13 -13 -36t-27 -45.5t-41 -39.5t-55 -17q-20 0 -34 8t-22.5 21.5t-12 31.5t-3.5 38q0 22 4 39h17q-1 -6 -1 -10.5v-9.5q0 -14 2.5 -28t9.5 -25t18.5 -18t29.5 -7q27 0 46.5 11.5t33 27.5
t21.5 32.5t12 26.5h15z" />
    <glyph glyph-name="scedilla" unicode="&#x15f;" horiz-adv-x="426" 
d="M235 -118l-3 -2q-10 -7 -22.5 -13t-31.5 -6q-23 0 -39.5 11.5t-16.5 33.5q0 14 6 26.5t14.5 23.5t19 19.5t19.5 15.5q-20 -6 -39 -6q-27 0 -54 9.5t-48 27.5t-34 44.5t-13 61.5q0 32 10 55t25.5 39.5t33.5 27.5t33 18l54 -32q-21 -3 -41 -12t-35.5 -24t-25 -36.5
t-9.5 -48.5q0 -25 9 -46t24.5 -36.5t36.5 -24t44 -8.5q39 0 63.5 25t24.5 66q0 36 -12 67.5t-27 61t-27 58t-12 58.5q0 19 7.5 36.5t22 31.5t34.5 22.5t45 8.5q19 0 33.5 -4.5t25.5 -10.5t19 -13t13 -12l-32 -55q-1 7 -4.5 20.5t-11.5 26.5t-21 23t-33 10q-23 0 -35.5 -15.5
t-12.5 -34.5q0 -24 13.5 -54t30 -62.5t30.5 -66.5t14 -67q0 -30 -15 -51.5t-29 -33.5l15 -1q22 0 47.5 15t52 38t52.5 51t47 53.5t36 45.5l21 28l-9 -25q-5 -8 -19.5 -28.5t-35.5 -46t-47 -53.5t-54.5 -50.5t-58.5 -37.5t-58 -15q-5 0 -10 0.5t-10 0.5q-27 -18 -47.5 -40
t-20.5 -51q0 -19 11.5 -28.5t28.5 -9.5q8 0 15.5 3t15.5 8z" />
    <glyph glyph-name="scedilla" unicode="&#xf6c2;" horiz-adv-x="426" 
d="M235 -118l-3 -2q-10 -7 -22.5 -13t-31.5 -6q-23 0 -39.5 11.5t-16.5 33.5q0 14 6 26.5t14.5 23.5t19 19.5t19.5 15.5q-20 -6 -39 -6q-27 0 -54 9.5t-48 27.5t-34 44.5t-13 61.5q0 32 10 55t25.5 39.5t33.5 27.5t33 18l54 -32q-21 -3 -41 -12t-35.5 -24t-25 -36.5
t-9.5 -48.5q0 -25 9 -46t24.5 -36.5t36.5 -24t44 -8.5q39 0 63.5 25t24.5 66q0 36 -12 67.5t-27 61t-27 58t-12 58.5q0 19 7.5 36.5t22 31.5t34.5 22.5t45 8.5q19 0 33.5 -4.5t25.5 -10.5t19 -13t13 -12l-32 -55q-1 7 -4.5 20.5t-11.5 26.5t-21 23t-33 10q-23 0 -35.5 -15.5
t-12.5 -34.5q0 -24 13.5 -54t30 -62.5t30.5 -66.5t14 -67q0 -30 -15 -51.5t-29 -33.5l15 -1q22 0 47.5 15t52 38t52.5 51t47 53.5t36 45.5l21 28l-9 -25q-5 -8 -19.5 -28.5t-35.5 -46t-47 -53.5t-54.5 -50.5t-58.5 -37.5t-58 -15q-5 0 -10 0.5t-10 0.5q-27 -18 -47.5 -40
t-20.5 -51q0 -19 11.5 -28.5t28.5 -9.5q8 0 15.5 3t15.5 8z" />
    </font>
</defs>
</svg>
