<?xml version="1.0" standalone="no"?>
<!DOCTYPE svg PUBLIC "-//W3C//DTD SVG 1.1//EN" "http://www.w3.org/Graphics/SVG/1.1/DTD/svg11.dtd" >
<svg>
<metadata>
Created by FontForge 20120731 at Wed Mar  5 16:46:23 2014
 By World Wide Web Server
Copyright (c) 1992-95 ElseWare.  All rights reserved.
</metadata>
<defs>
<font id="Univers-Medium" horiz-adv-x="1284" >
  <font-face 
    font-family="Univers"
    font-weight="400"
    font-stretch="normal"
    units-per-em="2048"
    panose-1="2 11 6 3 2 2 2 3 2 4"
    ascent="1638"
    descent="-410"
    x-height="983"
    cap-height="1411"
    bbox="-730 -512 2096 2014"
    underline-thickness="105"
    underline-position="-355"
    unicode-range="U+0020-EFF9"
  />
<missing-glyph horiz-adv-x="669" 
d="M0 1274h569v-1274h-569v1274zM100 1174v-1074h369v1074h-369z" />
    <glyph glyph-name=".notdef" horiz-adv-x="669" 
d="M0 1274h569v-1274h-569v1274zM100 1174v-1074h369v1074h-369z" />
    <glyph glyph-name="glyph1" horiz-adv-x="0" 
 />
    <glyph glyph-name="space" unicode=" " horiz-adv-x="680" 
 />
    <glyph glyph-name="exclam" unicode="!" horiz-adv-x="680" 
d="M281 354l-42 1057h210l-42 -1057h-126zM246 202h196v-202h-196v202z" />
    <glyph glyph-name="quotedbl" unicode="&#x22;" horiz-adv-x="1020" 
d="M281 935l-60 476h229l-60 -476h-109zM630 935l-60 476h229l-60 -476h-109z" />
    <glyph glyph-name="numbersign" unicode="#" 
d="M1158 1404l-416 -1434h-146l416 1434h146zM768 1404l-416 -1434h-146l416 1434h146zM326 1040h892l-37 -129h-892zM183 545h892l-37 -129h-892z" />
    <glyph glyph-name="dollar" unicode="$" 
d="M862 945v0q5 70 -46.5 113t-141.5 43t-139 -35t-49 -99q0 -50 21 -79q20 -29 63 -40l249 -64q138 -35 199 -99t61 -174q0 -147 -107.5 -231t-297.5 -84q-185 0 -292.5 86.5t-112.5 239.5v0h184v0q12 -93 68.5 -141.5t152.5 -48.5q105 0 163 42t58 119q0 48 -29 79
q-28 31 -88 46l-249 64q-121 31 -175 93q-53 61 -53 170q0 133 99 208.5t274 75.5q201 0 292 -70q83 -63 82 -184l-1 -30v0h-185zM770 332v-390h-192v390h192zM578 1101v368h192v-368h-192z" />
    <glyph glyph-name="percent" unicode="%" horiz-adv-x="2039" 
d="M596 650q-153 0 -247.5 109.5t-94.5 286.5q0 174 94.5 281t247.5 107v0q153 0 247.5 -107t94.5 -281q0 -177 -94.5 -286.5t-247.5 -109.5v0zM596 1317q-85 0 -135.5 -74t-50.5 -198q0 -127 50.5 -202.5t135.5 -75.5v0q89 0 137.5 72.5t48.5 205.5q0 130 -48.5 201
t-137.5 71v0zM563 -69l843 1518h130l-843 -1518h-130zM1501 -26q-153 0 -247.5 109.5t-94.5 286.5q0 174 94.5 281t247.5 107v0q153 0 247.5 -107t94.5 -281q0 -177 -94.5 -286.5t-247.5 -109.5v0zM1501 641q-85 0 -135.5 -74t-50.5 -198q0 -127 50.5 -202.5t135.5 -75.5v0
q89 0 137.5 72.5t48.5 205.5q0 130 -48.5 201t-137.5 71v0z" />
    <glyph glyph-name="ampersand" unicode="&#x26;" horiz-adv-x="1548" 
d="M317 1125q0 147 91 230.5t251 83.5t250.5 -76.5t90.5 -211.5q0 -105 -98 -207q-74 -78 -193 -140l391 -406q12 31 18 60q17 87 17 360v0h88h88v0q0 -292 -27 -398q-17 -66 -65 -146l264 -274v0h-124h-125v0l-126 134q-68 -65 -168 -107q-131 -55 -285 -55
q-232 0 -364 117t-132 322q0 132 99 254q78 95 202 166q-42 53 -74 106q-69 114 -69 188zM658 115q113 0 210 43q77 35 132 91l-422 447l-26 28q-83 -51 -136 -116q-77 -94 -77 -198q0 -111 100 -203q99 -92 219 -92zM495 1139q0 -54 53 -138q28 -45 69 -95q77 41 128 89
q75 73 75 151q0 71 -42.5 110t-119.5 39q-78 0 -121 -41q-42 -41 -42 -115z" />
    <glyph glyph-name="quotesingle" unicode="'" horiz-adv-x="680" 
d="M279 935l-58 476h229l-57 -476h-114z" />
    <glyph glyph-name="parenleft" unicode="(" horiz-adv-x="680" 
d="M197 604q0 139 62.5 372.5t152.5 433.5h128q-56 -141 -110 -407t-54 -399q0 -155 52 -421t106 -385h-128q-88 194 -149 428q-60 234 -60 378z" />
    <glyph glyph-name="parenright" unicode=")" horiz-adv-x="680" 
d="M474 604q0 -140 -62 -373.5t-152 -432.5h-128q55 140 109 406t54 400q0 156 -52 422t-105 384h128q87 -194 148 -428q60 -233 60 -378z" />
    <glyph glyph-name="asterisk" unicode="*" 
d="M910 1361l-178 -240v0l295 36v-141l-294 36v0l181 -234l-122 -73l-120 273v0l-114 -275l-124 70l178 240v0l-295 -36v141l294 -36v0l-181 234l122 73l120 -273v0l114 275z" />
    <glyph glyph-name="plus" unicode="+" horiz-adv-x="2039" 
d="M988 504h-513v120h513v513h120v-513h513v-120h-513v-513h-120v513z" />
    <glyph glyph-name="comma" unicode="," horiz-adv-x="680" 
d="M168 -238l129 476h208l-213 -476h-124z" />
    <glyph glyph-name="hyphen" unicode="-" horiz-adv-x="680" 
d="M93 597h486v-133h-486v133z" />
    <glyph glyph-name="period" unicode="." horiz-adv-x="680" 
d="M237 238h218v-238h-218v238z" />
    <glyph glyph-name="slash" unicode="/" horiz-adv-x="680" 
d="M654 1411l-449 -1517h-114l449 1517h114z" />
    <glyph glyph-name="zero" unicode="0" 
d="M642 -32q-243 0 -393.5 204t-150.5 536q0 324 150.5 524t393.5 200q244 0 394 -200t150 -524q0 -332 -150 -536t-394 -204v0zM642 128q164 0 261.5 157t97.5 421q0 259 -97.5 412.5t-261.5 153.5t-261.5 -153.5t-97.5 -412.5q0 -264 97.5 -421t261.5 -157v0z" />
    <glyph glyph-name="one" unicode="1" 
d="M618 0v1185v0q-44 -36 -85 -64q-87 -58 -224 -111v176q110 43 181 88q71 46 157 129h160v0v-1403v0h-94h-95v0z" />
    <glyph glyph-name="two" unicode="2" 
d="M1112 1058q0 -211 -215 -462q-176 -205 -499 -442v0h743v-154h-973v84v85q341 256 551 500q210 243 210 381q0 105 -70.5 167.5t-189.5 62.5q-116 0 -188 -69t-72 -181v0h-183v0q0 184 120 293t323 109q198 0 321 -103q122 -103 122 -271z" />
    <glyph glyph-name="three" unicode="3" 
d="M925 1042q0 109 -76 173.5t-204 64.5q-125 0 -202.5 -65t-77.5 -171v0h-183v0q0 178 126 283t339 105q209 0 337.5 -102.5t128.5 -269.5q0 -171 -129 -276q-46 -38 -103 -62v0q80 -22 137 -62q125 -89 125 -266q0 -191 -138.5 -308.5t-362.5 -117.5q-194 0 -332 115
t-168 302v0h193v0q31 -120 113 -188.5t196 -68.5q142 0 226 76t84 204q0 107 -91 170.5t-244 63.5h-77v158h63q137 0 229 70q91 69 91 172z" />
    <glyph glyph-name="four" unicode="4" 
d="M751 353h-656v85v85l622 888h111h112v-904v0h267v-154h-267v0v-353h-189v353v0zM751 507v0v703v0v0l-480 -687l-11 -16v0h491z" />
    <glyph glyph-name="five" unicode="5" 
d="M1114 457q0 -219 -129 -354t-339 -135q-190 0 -319 109t-148 286v0h193v0q25 -122 91 -178.5t183 -56.5q126 0 200.5 90t74.5 241q0 148 -74.5 236.5t-200.5 88.5q-100 0 -168 -57t-78 -149h-189l12 825v0h817v-154h-640v0l-11 -454v0q41 44 75 70q95 71 238 71
q185 0 299 -132q113 -132 113 -347z" />
    <glyph glyph-name="six" unicode="6" 
d="M706 1432q197 0 309 -99.5t112 -274.5v0h-185v0q0 102 -63 160t-173 58q-179 0 -276 -185q-74 -140 -90 -375v0q20 32 45 59q135 152 331 152q198 0 319.5 -131t121.5 -343q0 -217 -138.5 -351t-362.5 -134q-241 0 -371 173.5t-130 493.5q0 383 144 590q143 207 407 207z
M371 451q0 -148 81.5 -235.5t218.5 -87.5q138 0 219.5 87.5t81.5 235.5q0 144 -73.5 230t-197.5 86q-151 0 -241 -86q-89 -86 -89 -230z" />
    <glyph glyph-name="seven" unicode="7" 
d="M355 0l562 1238l7 15v0h-760v158h959v-86v-87l-541 -1238h-227z" />
    <glyph glyph-name="eight" unicode="8" 
d="M642 -32q-225 0 -364 111.5t-139 292.5q0 177 139 287q65 51 151 79v0q-72 24 -126 68q-129 101 -129 266q0 161 129 260.5t339 99.5t339 -99.5t129 -260.5q0 -165 -129 -267q-55 -44 -126 -68v0q85 -26 152 -79q139 -109 139 -286q0 -181 -139 -292.5t-365 -111.5v0z
M642 816q129 0 206 62.5t77 167.5q0 103 -77 164.5t-206 61.5t-206 -61.5t-77 -164.5q0 -105 77 -168q77 -62 206 -62zM642 656q-145 0 -231.5 -71t-86.5 -190q0 -122 86.5 -194.5t231.5 -72.5q146 0 232.5 72.5t86.5 194.5q0 119 -87 190q-86 71 -232 71z" />
    <glyph glyph-name="nine" unicode="9" 
d="M599 -32q-201 0 -312.5 94t-131.5 280v0h185v0q12 -109 77 -163.5t182 -54.5q201 0 283 160q71 138 79 443v0q-19 -33 -44 -61q-122 -144 -298 -144q-208 0 -336 124t-128 326q0 206 136.5 333t357.5 127q247 0 370.5 -177t122.5 -532q-1 -378 -137 -567
q-135 -188 -406 -188zM926 974q0 136 -79.5 217t-213.5 81t-213.5 -81t-79.5 -217q0 -133 76.5 -212.5t205.5 -79.5q139 0 222 80q82 79 82 212z" />
    <glyph glyph-name="colon" unicode=":" horiz-adv-x="680" 
d="M237 238h218v-238h-218v238zM237 983h218v-238h-218v238z" />
    <glyph glyph-name="semicolon" unicode=";" horiz-adv-x="680" 
d="M168 -238l129 476h208l-213 -476h-124zM265 983h218v-238h-218v238z" />
    <glyph glyph-name="less" unicode="&#x3c;" horiz-adv-x="2039" 
d="M410 542v72v72l1225 549v-145l-1066 -475v0l1066 -479v-145z" />
    <glyph glyph-name="equal" unicode="=" horiz-adv-x="2039" 
d="M474 455h1150v-120h-1150v120zM474 827h1150v-120h-1150v120z" />
    <glyph glyph-name="greater" unicode="&#x3e;" horiz-adv-x="2039" 
d="M1635 542l-1225 -551v145l1066 479v0l-1066 475v145l1225 -549v-72v-72z" />
    <glyph glyph-name="question" unicode="?" horiz-adv-x="1057" 
d="M424 1265q-60 0 -119.5 -7t-95.5 -19v0v144v0q60 19 127 30.5t122 11.5q199 0 312 -92t113 -254q0 -121 -115 -258q-64 -77 -188 -183q-34 -29 -48 -56t-14 -64v-163h-160v223q0 26 10.5 46t36.5 43q151 132 214 213q71 91 71 172q0 102 -70 158q-69 55 -196 55zM340 202
h196v-202h-196v202z" />
    <glyph glyph-name="at" unicode="@" horiz-adv-x="2040" 
d="M1523 393q74 0 117 111t43 300q0 305 -171.5 483.5t-464.5 178.5q-317 0 -503.5 -203.5t-186.5 -550.5t196.5 -551t532.5 -204q97 0 188 10.5t125 26.5v-170q-34 -16 -124 -26.5t-186 -10.5q-428 0 -679 249.5t-251 675.5q0 425 242 674.5t653 249.5q381 0 604 -224.5
t223 -607.5q0 -267 -108 -424t-291 -157q-122 0 -194 97q-20 28 -36 61v0l-24 -34q-98 -124 -270 -124q-154 0 -260.5 134.5t-106.5 329.5t108 329.5t265 134.5q149 0 252 -122v0v95h181v-541q0 -87 34 -138.5t92 -51.5zM997 1012q-92 0 -155 -94t-63 -231t63 -231t155 -94
q104 0 161.5 85t57.5 240q0 143 -61.5 234t-157.5 91z" />
    <glyph glyph-name="A" unicode="A" horiz-adv-x="1511" 
d="M67 0l579 1411h106h106l579 -1411v0h-105h-105v0l-142 368v0h-664v0l-140 -368v0h-107h-107v0zM753 1229l-270 -701v0h541v0l-271 701v0v0z" />
    <glyph glyph-name="B" unicode="B" 
d="M179 0v1411v0h96v0h361q257 0 387 -87t130 -259q0 -176 -130 -265q-50 -34 -119 -56v0q96 -22 164 -71q137 -97 137 -291q0 -190 -124.5 -286t-372.5 -96h-433v0h-96v0zM372 1251v-436v0h264q164 0 244 52t80 159q0 114 -80 169.5t-244 55.5h-264v0zM372 651v-491v0h319
q169 0 245 58.5t76 189.5q0 118 -90.5 180.5t-261.5 62.5h-288v0z" />
    <glyph glyph-name="C" unicode="C" horiz-adv-x="1435" 
d="M1311 374v0q-5 -180 -154 -291t-385 -111q-295 0 -463 193.5t-168 533.5q0 346 168 543t463 197q247 0 393 -109t146 -293v0h-198v0q0 107 -88.5 173t-232.5 66q-216 0 -334.5 -145t-118.5 -409q0 -281 116.5 -435t327.5 -154q140 0 228 64t102 177v0h198z" />
    <glyph glyph-name="D" unicode="D" horiz-adv-x="1473" 
d="M186 0v1411v0h96v0h351q354 0 532 -182t178 -544q0 -341 -168.5 -513t-503.5 -172h-389v0h-96v0zM379 160v0h293q248 0 363.5 133.5t114.5 418.5q1 273 -127 406t-390 133h-254v0v-1091z" />
    <glyph glyph-name="E" unicode="E" horiz-adv-x="1171" 
d="M184 0v0v1411v0h860v0v-80v-80v0h-667v0v-445v0h641v-80v-80v0h-641v0v-486v0h685v0v-80v-80v0h-878z" />
    <glyph glyph-name="F" unicode="F" horiz-adv-x="1133" 
d="M180 0v1411v0h869v0v-80v-80v0h-676v0v-445v0h641v-80v-80v0h-641v0v-646h-96h-97z" />
    <glyph glyph-name="G" unicode="G" horiz-adv-x="1511" 
d="M794 -28q-310 0 -486.5 189.5t-176.5 522.5q0 353 180.5 554t496.5 201q239 0 380.5 -105t141.5 -283v0h-193v0q-8 101 -99 163t-230 62q-230 0 -357 -148t-127 -418q0 -281 124.5 -429.5t359.5 -148.5q186 1 329 42v0v427v0h-316v168h509v-714v0q-214 -83 -536 -83z" />
    <glyph glyph-name="H" unicode="H" horiz-adv-x="1473" 
d="M179 0v1411v0h96h97v0v-603v0h727v0v603v0h96h97v0v-1411v0h-96h-97v0v644v0h-727v0v-644v0h-96h-97v0z" />
    <glyph glyph-name="I" unicode="I" horiz-adv-x="566" 
d="M188 0v1411v0h96h97v0v-1411v0h-96h-97v0z" />
    <glyph glyph-name="J" unicode="J" horiz-adv-x="1133" 
d="M763 1411v0h96h97v0v-974q0 -232 -115 -348.5t-344 -116.5q-197 0 -307.5 103t-116.5 292v0h193v0q15 -123 71 -178t166 -55q129 0 194.5 71t65.5 209v0v997z" />
    <glyph glyph-name="K" unicode="K" horiz-adv-x="1360" 
d="M399 0v0h-96h-97v0v1411v0h96h97v0v-613v0l577 613v0h123h124v0l-614 -629v0l668 -782v0h-127h-128v0l-623 754v0v-754z" />
    <glyph glyph-name="L" unicode="L" horiz-adv-x="1095" 
d="M179 0v0v1411v0h96h97v0v-1251v0h666v0v-80v-80v0h-859z" />
    <glyph glyph-name="M" unicode="M" horiz-adv-x="1850" 
d="M366 0v0h-96h-97v0v1411v0h156h157v0l443 -1181v0v0l429 1181v0h156h157v0v-1411v0h-96h-97v0v1265v0l-453 -1265h-97h-97l-465 1263v0v-1263z" />
    <glyph glyph-name="N" unicode="N" horiz-adv-x="1473" 
d="M361 0v0h-96h-96v0v1411v0h125h126v0l689 -1183v0v0v1183v0h96h96v0v-1411h-129h-130l-681 1170v0v0v-1170z" />
    <glyph glyph-name="O" unicode="O" horiz-adv-x="1548" 
d="M767 -28q-295 0 -463.5 197.5t-168.5 544.5q0 339 168.5 532t463.5 193q297 0 465 -193t168 -532q0 -347 -168 -544.5t-465 -197.5v0zM767 132q210 0 325 151.5t115 428.5q0 270 -115 418.5t-325 148.5q-209 0 -324 -148.5t-115 -418.5q0 -277 115 -428.5t324 -151.5v0z
" />
    <glyph glyph-name="P" unicode="P" horiz-adv-x="1208" 
d="M174 0v1411v0h96v0h417q223 0 350 -107t127 -295q0 -192 -127 -301t-350 -109h-320v0v-599v0h-96h-97v0zM367 759v0h320q135 0 209.5 65t74.5 183q0 116 -74.5 180t-209.5 64h-320v0v-492z" />
    <glyph glyph-name="Q" unicode="Q" horiz-adv-x="1586" 
d="M782 1439q297 0 465 -189t168 -522q0 -346 -189 -551l-15 -17v0h312v-160h-222l-519 -28v0q-314 0 -473 186t-159 556q0 339 168.5 532t463.5 193v0zM782 1279q-209 0 -324 -148.5t-115 -418.5q0 -277 115 -428.5t324 -151.5q210 0 325 151.5t115 428.5q0 270 -115 418.5
t-325 148.5v0z" />
    <glyph glyph-name="R" unicode="R" horiz-adv-x="1322" 
d="M181 0v1411v0h96v0h466q214 0 336 -96.5t122 -265.5q0 -173 -131 -271q-62 -47 -148 -72v0q95 -11 139 -49q65 -54 88 -217q18 -128 34 -216l11 -62q13 -65 23.5 -101t23.5 -60h-102h-103q-19 57 -35.5 138t-38.5 222l-9 59q-18 117 -77 164.5t-184 47.5h-318v0v-632v0
h-96h-97v0zM374 792v0h336q142 0 220 57t78 161q0 127 -82.5 184t-266.5 57h-285v0v-459z" />
    <glyph glyph-name="S" unicode="S" horiz-adv-x="1322" 
d="M976 1058v0q-6 97 -87 157t-207 60q-159 0 -246.5 -60t-87.5 -169q0 -72 51 -119q50 -47 153 -72l284 -68q198 -48 286 -135q87 -87 87 -236q0 -208 -142.5 -326t-393.5 -118q-247 0 -382 109.5t-155 327.5v0h194v0q5 -141 89 -209t254 -68q164 0 253.5 70t89.5 198
q0 74 -55 124q-54 50 -167 77l-284 68q-190 45 -274 131q-84 85 -84 232q0 191 141 299t389 108q227 0 352.5 -97.5t137.5 -283.5v0h-196z" />
    <glyph glyph-name="T" unicode="T" 
d="M545 0v1251v0h-473v0v80v80v0h1139v0v-80v-80v0h-473v0v-1251v0h-96h-97v0z" />
    <glyph glyph-name="U" unicode="U" horiz-adv-x="1473" 
d="M1296 532q0 -262 -148.5 -411t-411.5 -149q-262 0 -411 149t-149 411v879v0h96h97v0v-837q0 -211 96.5 -326.5t271.5 -115.5t271 115.5t96 326.5v837v0h96h96v0v-879z" />
    <glyph glyph-name="V" unicode="V" horiz-adv-x="1473" 
d="M65 1411v0h104h105v0l462 -1226v0v0l456 1226v0h104h105v0l-560 -1411h-108h-108z" />
    <glyph glyph-name="W" unicode="W" horiz-adv-x="2039" 
d="M473 0l-416 1411v0h101h101v0l326 -1204v0v0l323 1204h102h103l360 -1220v0v0l320 1220v0h95h96v0l-417 -1411h-102h-103l-360 1208v0v0l-326 -1208h-101h-102z" />
    <glyph glyph-name="X" unicode="X" horiz-adv-x="1473" 
d="M82 0l533 739v0l-486 672v0h120h121v0l375 -548v0v0l373 548v0h115h115v0l-492 -676v0l541 -735v0h-123h-124v0l-421 601v0v0l-411 -601v0h-118h-118v0z" />
    <glyph glyph-name="Y" unicode="Y" horiz-adv-x="1397" 
d="M594 574v0l-541 837v0h118h118v0l415 -689v0l418 689v0h102h102v0l-539 -836v0v-575h-96h-97v574z" />
    <glyph glyph-name="Z" unicode="Z" horiz-adv-x="1246" 
d="M101 181l787 1039l24 31v0h-788v0v80v80v0h1003v-95v-96l-794 -1039l-16 -21v0h829v0v-80v-80v0h-1045v90v91z" />
    <glyph glyph-name="bracketleft" unicode="[" horiz-adv-x="680" 
d="M196 -184v1594v0h359v-87h-193v0v-1424v0h193v-83h-359v0z" />
    <glyph glyph-name="backslash" unicode="\" horiz-adv-x="680" 
d="M508 -106l-450 1517h114l450 -1517h-114z" />
    <glyph glyph-name="bracketright" unicode="]" horiz-adv-x="680" 
d="M476 -184v0h-359v83h193v0v1424v0h-193v87h359v0v-1594z" />
    <glyph glyph-name="asciicircum" unicode="^" horiz-adv-x="1020" 
d="M564 1536q69 -158 144 -252q76 -95 216 -197v-94q-232 105 -368 219l-46 41v0l-44 -40q-136 -114 -367 -220v94q139 102 214 196q76 95 145 253h53h53z" />
    <glyph glyph-name="underscore" unicode="_" horiz-adv-x="1020" 
d="M0 -512v105h1020v-105h-1020z" />
    <glyph glyph-name="grave" unicode="`" 
d="M653 1103l-265 300h248l188 -300h-171z" />
    <glyph glyph-name="a" unicode="a" horiz-adv-x="1095" 
d="M475 -28q-169 0 -264.5 81.5t-95.5 225.5q0 156 131 244.5t361 88.5h164v0v83q0 94 -54 137t-174 43q-82 0 -132 -39.5t-56 -109.5v0h-190v0q11 148 106 216.5t287 68.5q177 0 285.5 -87t108.5 -229v-342q0 -140 7 -234t20 -119v0v0h-172v0q-11 13 -17 66q-5 35 -7 84v0
q-18 -32 -41 -61q-97 -117 -267 -117zM771 404v74v0h-166q-154 0 -230.5 -50t-76.5 -150q0 -81 54 -125.5t153 -44.5q133 0 199 75t67 221v0z" />
    <glyph glyph-name="b" unicode="b" horiz-adv-x="1171" 
d="M157 1411v0h90h91v0v-556v0l14 18q110 138 303 138q194 0 303.5 -136.5t109.5 -377.5q0 -246 -111.5 -385.5t-309.5 -139.5q-195 0 -307 139l-2 2v-113v0h-181v0v1411zM610 106q131 0 203 102t72 288q0 182 -71.5 281.5t-202.5 99.5q-130 0 -201.5 -100.5t-71.5 -284.5v0
v0v0q0 -184 71 -285t201 -101z" />
    <glyph glyph-name="c" unicode="c" horiz-adv-x="1095" 
d="M988 334v0q-14 -180 -116 -271t-290 -91q-241 0 -357.5 129t-117.5 396q0 241 126.5 377.5t348.5 136.5q181 0 286.5 -91t110.5 -252v0h-185v0q-3 97 -64.5 152t-166.5 55q-136 0 -199.5 -91.5t-63.5 -287.5q0 -204 62 -296t201 -92q117 0 175.5 54.5t67.5 171.5v0h182z
" />
    <glyph glyph-name="d" unicode="d" horiz-adv-x="1171" 
d="M505 -28q-192 0 -301.5 139.5t-109.5 385.5q0 241 111.5 377.5t307.5 136.5q197 0 309 -138l2 -2v540v0h90h91v0v-1411v0h-90h-91v0v130v0l-15 -19q-111 -139 -304 -139zM555 877q-128 0 -198.5 -99.5t-70.5 -281.5q0 -186 70.5 -288t198.5 -102t198.5 101t70.5 285
t-70.5 284.5t-198.5 100.5z" />
    <glyph glyph-name="e" unicode="e" horiz-adv-x="1095" 
d="M565 -28q-217 0 -340 134t-123 370q0 250 123.5 392.5t339.5 142.5q209 0 319 -123.5t110 -359.5l-2 -66v0h-701v0q7 -168 64 -255q65 -99 205 -99q99 0 162.5 55t75.5 152v0h187v0q-21 -167 -128.5 -255t-291.5 -88zM808 597v0q-9 135 -56 198q-59 80 -202 80
q-124 0 -193 -93q-52 -70 -64 -185v0h515z" />
    <glyph glyph-name="f" unicode="f" horiz-adv-x="755" 
d="M445 852v0v-852v0h-90h-91v0v852v0h-192v131h192v0v114q0 184 68.5 256t243.5 72q49 0 97 -10v-134q-33 8 -71 8q-87 0 -122 -43t-35 -149v-114v0h228v-131h-228z" />
    <glyph glyph-name="g" unicode="g" horiz-adv-x="1171" 
d="M560 -259q148 0 209.5 72t61.5 245v131v0l-30 -42q-110 -133 -289 -133q-192 0 -301.5 134t-109.5 370q0 216 121.5 354.5t311.5 138.5q180 0 282 -133l15 -19v0v124v0h181v-925q0 -236 -109.5 -344.5t-346.5 -108.5q-207 0 -303.5 77t-96.5 242v0h189v0q0 -95 52 -139
t163 -44zM562 877q-128 0 -198.5 -94.5t-70.5 -266.5q0 -186 66.5 -277t202.5 -91q128 0 198.5 95.5t70.5 269.5t-70.5 269t-198.5 95z" />
    <glyph glyph-name="h" unicode="h" horiz-adv-x="1171" 
d="M148 0v1411v0h90h91v0v-549v0v0l22 24q111 125 300 125q193 0 283.5 -102.5t90.5 -320.5v-588v0h-90h-91v0v583q0 151 -57 219t-182 68q-145 0 -210.5 -74.5t-65.5 -239.5v0v-556v0h-90h-91v0z" />
    <glyph glyph-name="i" unicode="i" horiz-adv-x="491" 
d="M154 0v983v0h90h91v0v-983v0h-90h-91v0zM145 1411h198v-185h-198v185z" />
    <glyph glyph-name="j" unicode="j" horiz-adv-x="491" 
d="M155 983v0h90h91v0v-1072q0 -166 -57.5 -233.5t-198.5 -67.5q-59 -1 -101 7v129h54q70 0 96 35t26 130v0v1072zM147 1411h198v-185h-198v185z" />
    <glyph glyph-name="k" unicode="k" horiz-adv-x="1095" 
d="M361 0v0h-90h-91v0v1411v0h90h91v0v-836v0l386 408v0h114h115v0l-423 -415v0l492 -568v0h-122h-122v0l-440 541v0v-541z" />
    <glyph glyph-name="l" unicode="l" horiz-adv-x="491" 
d="M150 0v1411v0h90h91v0v-1411v0h-90h-91v0z" />
    <glyph glyph-name="m" unicode="m" horiz-adv-x="1775" 
d="M147 0v983v0h90h91v0v-117v0v0l17 20q104 125 280 125q152 0 251 -95q40 -38 63 -85v0l38 51q110 129 283 129q184 0 271 -98t87 -307v-606v0h-90h-91v0v612q0 135 -51 196.5t-164 61.5q-130 0 -189 -74.5t-59 -239.5v0v-556v0h-90h-91v0v611q0 136 -51.5 197.5
t-164.5 61.5q-131 0 -190 -74.5t-59 -239.5v0v-556v0h-90h-91v0z" />
    <glyph glyph-name="n" unicode="n" horiz-adv-x="1171" 
d="M147 0v983v0h84h84v0v-136v0v0q14 21 31 39q112 125 302 125q194 0 285 -103t91 -322v-586v0h-90h-91v0v583q0 151 -57 219t-182 68q-145 0 -210.5 -74.5t-65.5 -239.5v0v-556v0h-90h-91v0z" />
    <glyph glyph-name="o" unicode="o" horiz-adv-x="1171" 
d="M580 -28q-222 0 -348.5 139.5t-126.5 385.5q0 241 126.5 377.5t348.5 136.5q223 0 349 -136.5t126 -377.5q0 -246 -126 -385.5t-349 -139.5v0zM580 108q134 0 208 101.5t74 286.5q0 181 -74 280t-208 99t-208 -99t-74 -280q0 -185 74 -286.5t208 -101.5v0z" />
    <glyph glyph-name="p" unicode="p" horiz-adv-x="1171" 
d="M150 983v0h90h91v0v-128v0l14 18q110 138 303 138q194 0 303.5 -136.5t109.5 -377.5q0 -246 -111.5 -385.5t-309.5 -139.5q-195 0 -307 139l-2 2v-480v0h-90h-91v0v1350zM603 106q131 0 203 102t72 288q0 182 -71.5 281.5t-202.5 99.5q-130 0 -201.5 -100.5t-71.5 -284.5
v0v0v0q0 -197 66.5 -291.5t205.5 -94.5z" />
    <glyph glyph-name="q" unicode="q" horiz-adv-x="1171" 
d="M517 -28q-192 0 -301.5 139.5t-109.5 385.5q0 241 111.5 377.5t307.5 136.5q197 0 309 -138l2 -2v112v0h181v0v-1350v0h-90h-91v0v497v0l-15 -19q-111 -139 -304 -139zM567 877q-128 0 -198.5 -99.5t-70.5 -281.5q0 -186 70.5 -288t198.5 -102t198.5 101t70.5 285
t-70.5 284.5t-198.5 100.5z" />
    <glyph glyph-name="r" unicode="r" horiz-adv-x="718" 
d="M148 0v983v0h90h91v0v-100v0v0q106 129 275 128l49 -2v-169l-37 2q-151 0 -219 -81.5t-68 -260.5v0v-500v0h-90h-91v0z" />
    <glyph glyph-name="s" unicode="s" horiz-adv-x="1020" 
d="M712 718v0q0 73 -52.5 115t-145.5 42q-96 0 -149 -35t-53 -98q0 -46 29 -76q28 -30 88 -46l200 -54q153 -42 220 -107q66 -64 66 -170q0 -148 -108.5 -232.5t-299.5 -84.5q-200 0 -304.5 82.5t-104.5 240.5v0h187v0q0 -88 59 -137.5t163 -49.5q109 0 169 43t60 122
q0 46 -37 78t-114 53l-200 54q-136 37 -196 99q-59 62 -59 168q0 134 102 210t282 76t282.5 -78t102.5 -215v0h-187z" />
    <glyph glyph-name="t" unicode="t" horiz-adv-x="755" 
d="M671 -14q-77 -14 -178 -14q-102 0 -173 56t-71 137v687v0h-204v131h204v0v177l181 75v-252v0h241v-131h-241v0v-645q0 -52 26 -75.5t83 -23.5q72 1 132 13v-135z" />
    <glyph glyph-name="u" unicode="u" horiz-adv-x="1171" 
d="M320 983v-589q0 -151 57 -219t182 -68q152 0 217.5 76t57.5 243v0v557v0h90h91v0v-983v0h-84h-84v0v128v0v0l-20 -26q-114 -131 -302 -131q-199 0 -292.5 105.5t-93.5 330.5v576v0h90h91v0z" />
    <glyph glyph-name="v" unicode="v" horiz-adv-x="1133" 
d="M63 983v0h100h100v0l306 -849v0v0l302 849v0h97h98v0l-400 -983h-102h-102z" />
    <glyph glyph-name="w" unicode="w" horiz-adv-x="1775" 
d="M434 0l-330 983v0h95h96v0l245 -819v0v0l238 819h115h115l255 -819v0v0l238 819v0h88h89v0l-321 -983h-102h-102l-264 862v0v0l-251 -862h-102h-102z" />
    <glyph glyph-name="x" unicode="x" horiz-adv-x="1133" 
d="M67 0l396 503v0l-369 480v0h119h119v0l255 -363v0v0l259 363v0h104h104v0l-369 -471v0l385 -512v0h-114h-115v0l-282 398v0v0l-280 -398v0h-106h-106v0z" />
    <glyph glyph-name="y" unicode="y" horiz-adv-x="1133" 
d="M513 -363v0h-91h-91v0l150 359v0l-415 987v0h97h98v0l317 -779v0v0l299 779v0h96h96v0z" />
    <glyph glyph-name="z" unicode="z" horiz-adv-x="982" 
d="M98 155l548 673l17 20v0h-539v0v67v68v0h742v-77v-78l-548 -673l-17 -20v0h579v0v-67v-68v0h-782v77v78z" />
    <glyph glyph-name="braceleft" unicode="{" horiz-adv-x="907" 
d="M761 -477q-219 0 -298.5 79.5t-79.5 298.5v266q0 137 -49.5 214t-136.5 77v176q87 0 136.5 77t49.5 214v266q0 219 79.5 298.5t298.5 79.5v-154q-100 0 -141 -48t-51 -176v-266q-19 -242 -97 -330q-26 -29 -65 -49v0q39 -20 65 -49q78 -88 97 -330v-266q10 -128 51 -176
t141 -48v-154z" />
    <glyph glyph-name="bar" unicode="|" horiz-adv-x="1020" 
d="M458 -512v2048h105v-2048h-105z" />
    <glyph glyph-name="braceright" unicode="}" horiz-adv-x="907" 
d="M145 -477v154q100 0 141 48t51 176v266q19 242 97 330q26 29 65 49v0q-39 20 -65 49q-78 88 -97 330v266q-10 128 -51 176t-141 48v154q219 0 298.5 -79.5t79.5 -298.5v-266q0 -137 49.5 -214t136.5 -77v-176q-87 0 -136.5 -77t-49.5 -214v-266q0 -219 -80 -299
q-79 -79 -298 -79z" />
    <glyph glyph-name="asciitilde" unicode="~" horiz-adv-x="2039" 
d="M414 525q93 133 166 187t158 54q53 0 127.5 -13.5t204.5 -46.5q161 -41 235 -58t95 -17q74 0 130.5 29t119.5 101l34 -36q-63 -134 -136 -189t-188 -55q-67 0 -141.5 13.5t-190.5 47.5q-137 40 -208 56t-107 16q-76 0 -136 -27.5t-132 -94.5z" />
    <glyph glyph-name="uni00A0" unicode="&#xa0;" horiz-adv-x="680" 
 />
    <glyph glyph-name="exclamdown" unicode="&#xa1;" horiz-adv-x="680" 
d="M407 624l42 -1057h-210l42 1057h126zM442 776h-196v202h196v-202z" />
    <glyph glyph-name="cent" unicode="&#xa2;" 
d="M1106 557v0q0 -169 -105 -265.5t-289 -96.5q-215 0 -338 140t-123 386q0 241 123 377.5t338 136.5q184 0 289 -89t105 -245v0h-193v0q0 93 -53.5 145.5t-147.5 52.5q-141 0 -204.5 -90t-63.5 -290q0 -204 63.5 -296t204.5 -92q99 0 155.5 60t56.5 166v0h182zM790 331
v-389h-189v389h189zM601 1099v366h189v-366h-189z" />
    <glyph glyph-name="sterling" unicode="&#xa3;" 
d="M1173 0h-896v138h103v575h-150v131h150v172q0 198 116 310.5t320 112.5q164 0 260.5 -84t96.5 -226v0h-189v0q0 78 -51.5 126t-135.5 48q-107 0 -167.5 -76.5t-60.5 -210.5v-172h284v-131h-284v-575h604v0v-69v-69v0z" />
    <glyph glyph-name="currency" unicode="&#xa4;" 
d="M974 728q0 137 -94.5 231.5t-231.5 94.5t-231 -94.5t-94 -231.5t94 -231t231 -94t231.5 94t94.5 231zM648 283q-158 0 -275 92v0l-137 -137l-79 79l137 137v0q-90 117 -91 274q0 159 92 275v0l-138 138l79 79l138 -138v0q117 93 274 92q157 0 274 -92v0l138 138l79 -79
l-138 -138v0q93 -116 93 -275q0 -156 -92 -274v0l137 -137l-79 -79l-137 137v0q-116 -91 -275 -92z" />
    <glyph glyph-name="yen" unicode="&#xa5;" 
d="M227 354v95h319v0v125v0l-544 837v0h118h118v0l419 -690v0l420 690v0h102h102v0l-542 -836v0v-126v0h319v-95h-319v0v-109v0h319v-95h-319v0v-150v0h-96h-97v0v150v0h-319v95h319v0v109v0h-319z" />
    <glyph glyph-name="brokenbar" unicode="&#xa6;" horiz-adv-x="1020" 
d="M458 -461v919h105v-919h-105zM458 564v919h105v-919h-105z" />
    <glyph glyph-name="section" unicode="&#xa7;" 
d="M705 1439q77 0 142.5 -10t98.5 -27v0v-136v0q-34 17 -100.5 28t-140.5 11q-71 0 -111 -36.5t-40 -101.5q0 -45 41.5 -80.5t127.5 -63.5l88 -28q103 -34 152.5 -91t49.5 -141q0 -117 -99 -184q-50 -33 -119 -51q104 -34 157 -91q61 -64 61 -163q0 -143 -98 -224.5
t-270 -81.5q-70 0 -142 10t-124 27v0v145v0q66 -22 139.5 -35t126.5 -13q87 0 136.5 44.5t49.5 122.5q0 52 -43 89t-132 61l-95 26q-113 30 -167.5 90t-54.5 153q0 111 106 189q59 43 131 61q-97 37 -148 89q-56 59 -56 143q0 126 89 198q88 71 244 71zM856 740
q0 55 -41.5 95t-127.5 68q-60 -11 -112 -54q-75 -59 -75 -129q0 -56 42 -95t125 -61q67 9 122 55q67 56 67 121z" />
    <glyph glyph-name="dieresis" unicode="&#xa8;" 
d="M362 1375h192v-208h-192v208zM723 1375h192v-208h-192v208z" />
    <glyph glyph-name="glyph106" horiz-adv-x="0" 
d="M-1 1529q201 0 339.5 -138.5t138.5 -339.5q0 -200 -138.5 -338.5t-339.5 -138.5q-200 0 -338.5 138.5t-138.5 338.5q0 201 138.5 339.5t338.5 138.5v0zM412 1051q0 173 -120 293t-293 120t-292.5 -120t-119.5 -293t119.5 -292.5t292.5 -119.5t293 119.5t120 292.5v0z" />
    <glyph glyph-name="glyph107" horiz-adv-x="0" 
d="M215 866q-24 -34 -81 -57t-115 -23q-110 0 -186.5 79.5t-76.5 194.5q0 116 75.5 195.5t184.5 79.5q58 0 114.5 -22t79.5 -54l-58 -62q-19 26 -58.5 44.5t-77.5 18.5q-78 0 -131.5 -58t-53.5 -142t54.5 -141.5t133.5 -57.5q37 0 77 19.5t61 47.5z" />
    <glyph glyph-name="copyright" unicode="&#xa9;" horiz-adv-x="1020" 
d="M533 1529q201 0 339.5 -138.5t138.5 -339.5q0 -200 -138.5 -338.5t-339.5 -138.5q-200 0 -338.5 138.5t-138.5 338.5q0 201 138.5 339.5t338.5 138.5v0zM946 1051q0 173 -120 293t-293 120t-292.5 -120t-119.5 -293t119.5 -292.5t292.5 -119.5t293 119.5t120 292.5v0z
M763 866q-24 -34 -81 -57t-115 -23q-110 0 -186.5 79.5t-76.5 194.5q0 116 75.5 195.5t184.5 79.5q58 0 114.5 -22t79.5 -54l-58 -62q-19 26 -58.5 44.5t-77.5 18.5q-78 0 -131.5 -58t-53.5 -142t54.5 -141.5t133.5 -57.5q37 0 77 19.5t61 47.5z" />
    <glyph glyph-name="ordfeminine" unicode="&#xaa;" horiz-adv-x="831" 
d="M352 748q-104 0 -167.5 57t-63.5 150q0 101 86.5 163.5t226.5 62.5h104v0v33q0 63 -28 92t-89 29q-48 0 -77 -23t-32 -63v0h-158v0q8 98 71.5 144t192.5 46q119 0 192 -62t73 -163v-85l1 -353v0v0h-123v0q-8 12 -14 68l-2 19v0l-23 -34q-65 -81 -170 -81zM538 1031v55v0
h-94q-87 0 -130.5 -32t-43.5 -97q0 -50 32 -79.5t85 -29.5q76 0 112.5 48t38.5 135v0z" />
    <glyph glyph-name="guillemotleft" unicode="&#xab;" horiz-adv-x="1133" 
d="M582 862l-224 -373v0l224 -373h-155l-262 373v0l262 373h155zM962 862l-224 -373v0l224 -373h-155l-262 373v0l262 373h155z" />
    <glyph glyph-name="logicalnot" unicode="&#xac;" horiz-adv-x="2039" 
d="M1540 759h-1096v120h1216v-630h-120v510z" />
    <glyph glyph-name="uni00AD" unicode="&#xad;" horiz-adv-x="680" 
d="M93 597h486v-133h-486v133z" />
    <glyph glyph-name="glyph113" horiz-adv-x="0" 
d="M-1 1524q201 0 339.5 -138.5t138.5 -339.5q0 -200 -138.5 -338.5t-339.5 -138.5q-200 0 -338.5 138.5t-138.5 338.5q0 201 138.5 339.5t338.5 138.5v0zM412 1046q0 173 -120 293t-293 120t-292.5 -120t-119.5 -293t119.5 -292.5t292.5 -119.5t293 119.5t120 292.5v0z" />
    <glyph glyph-name="glyph114" horiz-adv-x="0" 
d="M-160 807v506h187q62 0 104.5 -42.5t42.5 -104.5t-43 -105q-20 -20 -46 -31l89 -223h-91l-84 212v0h-84v-212h-75zM99 1166q0 30 -21 51t-51 21h-112v0v-72v-72h112q30 0 51 21t21 51z" />
    <glyph glyph-name="registered" unicode="&#xae;" horiz-adv-x="1020" 
d="M533 1524q201 0 339.5 -138.5t138.5 -339.5q0 -200 -138.5 -338.5t-339.5 -138.5q-200 0 -338.5 138.5t-138.5 338.5q0 201 138.5 339.5t338.5 138.5v0zM946 1046q0 173 -120 293t-293 120t-292.5 -120t-119.5 -293t119.5 -292.5t292.5 -119.5t293 119.5t120 292.5v0z
M366 807v506h187q62 0 104.5 -42.5t42.5 -104.5t-43 -105q-20 -20 -46 -31l89 -223h-91l-84 212v0h-84v-212h-75zM625 1166q0 30 -21 51t-51 21h-112v0v-72v-72h112q30 0 51 21t21 51z" />
    <glyph glyph-name="macron" unicode="&#xaf;" horiz-adv-x="1020" 
d="M0 1526v105h1020v-105h-1020z" />
    <glyph glyph-name="degree" unicode="&#xb0;" 
d="M671 1432q171 0 267 -98t96 -272t-96 -272t-267 -98t-267 98t-96 272t96 272t267 98zM888 1062q0 122 -57.5 191t-159.5 69t-159.5 -69t-57.5 -191t57.5 -191t159.5 -69t159.5 69t57.5 191z" />
    <glyph glyph-name="plusminus" unicode="&#xb1;" horiz-adv-x="2039" 
d="M991 634h-513v120h513v416h120v-416h513v-120h-513v-416h-120v416zM478 121h1146v-120h-1146v120z" />
    <glyph glyph-name="uni00B2" unicode="&#xb2;" horiz-adv-x="793" 
d="M673 1228q0 -108 -124 -235q-93 -96 -258 -203v0h398v-113h-563v59v59q183 120 296 233t113 177q0 53 -33.5 85t-90.5 32q-55 0 -89 -32.5t-34 -84.5v0h-140v0q0 105 71 167.5t191 62.5q118 0 191 -57q72 -57 72 -150z" />
    <glyph glyph-name="uni00B3" unicode="&#xb3;" horiz-adv-x="793" 
d="M532 1218q0 48 -38 76t-101 28q-54 0 -91.5 -30.5t-45.5 -79.5v0h-134v0q0 102 74 162.5t199 60.5q123 0 199 -57t76 -150q0 -94 -62 -133q-37 -23 -108 -33v0q80 -9 121 -36q66 -41 66 -141q0 -99 -81.5 -159.5t-213.5 -60.5q-134 0 -204.5 55.5t-89.5 175.5v0h142v0
q16 -61 53 -89.5t101 -28.5q70 0 112 33t42 89q0 47 -45.5 74.5t-121.5 27.5h-48v110h41q67 0 113 31q45 30 45 75z" />
    <glyph glyph-name="acute" unicode="&#xb4;" 
d="M534 1103l190 300h245l-263 -300h-172z" />
    <glyph glyph-name="uni00B5" unicode="&#xb5;" horiz-adv-x="1133" 
d="M506 980l-193 -642q-29 -99 15 -162.5t142 -63.5q104 0 187.5 106.5t145.5 318.5v0l128 443h190l-153 -529q-30 -103 -50 -234t-18 -217h-185q-1 77 7 168v0v0l-37 -55q-102 -141 -228 -141q-110 0 -165 88q-23 39 -31 81v0l-176 -478h-210q83 200 135 338t74 215
l222 764h200z" />
    <glyph glyph-name="paragraph" unicode="&#xb6;" 
d="M691 566v0q-215 39 -333 163t-118 316q0 216 161.5 348.5t425.5 132.5h260v-80h-138v0v-1772h-80v1772v0h-98v0v-1772h-80v892z" />
    <glyph glyph-name="periodcentered" unicode="&#xb7;" horiz-adv-x="680" 
d="M237 824h218v-238h-218v238z" />
    <glyph glyph-name="cedilla" unicode="&#xb8;" 
d="M487 -391l172 263h161l-117 -263h-216z" />
    <glyph glyph-name="uni00B9" unicode="&#xb9;" horiz-adv-x="793" 
d="M372 677v619v0l-59 -39q-52 -29 -131 -54v122q61 21 101 44t89 66h138v0v-758v0h-69h-69v0z" />
    <glyph glyph-name="ordmasculine" unicode="&#xba;" horiz-adv-x="831" 
d="M424 748q-149 0 -233.5 93t-84.5 256q0 160 84.5 251t233.5 91t234 -91t85 -251q0 -163 -85 -256t-234 -93v0zM428 848q79 0 122.5 65t43.5 183q0 116 -43.5 179.5t-122.5 63.5t-122.5 -63.5t-43.5 -179.5q0 -118 43.5 -183t122.5 -65v0z" />
    <glyph glyph-name="guillemotright" unicode="&#xbb;" horiz-adv-x="1133" 
d="M165 116l224 373v0l-224 373h155l262 -373v0l-262 -373h-155zM545 116l224 373v0l-224 373h155l262 -373v0l-262 -373h-155z" />
    <glyph glyph-name="uni2215" unicode="&#x2215;" horiz-adv-x="113" 
d="M532 1425l-848 -1503h-128l848 1503h128z" />
    <glyph glyph-name="uni2074" unicode="&#x2074;" horiz-adv-x="793" 
d="M436 853h-344v59v59l344 440h69h69v-445v0h144v-113h-144v0v-176h-138v176v0zM436 966v0v277v0v0l-213 -272l-4 -5v0h217z" />
    <glyph glyph-name="onequarter" unicode="&#xbc;" horiz-adv-x="2039" 
d="M1426 1425l-848 -1503h-128l848 1503h128zM544 677v619v0l-59 -39q-52 -29 -131 -54v122q61 21 101 44t89 66h138v0v-758v0h-69h-69v0zM1403 176h-344v59v59l344 440h69h69v-445v0h144v-113h-144v0v-176h-138v176v0zM1403 289v0v277v0v0l-213 -272l-4 -5v0h217z" />
    <glyph glyph-name="onehalf" unicode="&#xbd;" horiz-adv-x="2039" 
d="M1419 1425l-848 -1503h-128l848 1503h128zM552 677v619v0l-59 -39q-52 -29 -131 -54v122q61 21 101 44t89 66h138v0v-758v0h-69h-69v0zM1676 551q0 -108 -124 -235q-93 -96 -258 -203v0h398v-113h-563v59v59q183 120 296 233t113 177q0 53 -33.5 85t-90.5 32
q-55 0 -89 -32.5t-34 -84.5v0h-140v0q0 105 71 167.5t191 62.5q118 0 191 -57q72 -57 72 -150z" />
    <glyph glyph-name="threequarters" unicode="&#xbe;" horiz-adv-x="2039" 
d="M1549 1425l-848 -1503h-128l848 1503h128zM771 1218q0 48 -38 76t-101 28q-54 0 -91.5 -30.5t-45.5 -79.5v0h-134v0q0 102 74 162.5t199 60.5q123 0 199 -57t76 -150q0 -94 -62 -133q-37 -23 -108 -33v0q80 -9 121 -36q66 -41 66 -141q0 -99 -81.5 -159.5t-213.5 -60.5
q-134 0 -204.5 55.5t-89.5 175.5v0h142v0q16 -61 53 -89.5t101 -28.5q70 0 112 33t42 89q0 47 -45.5 74.5t-121.5 27.5h-48v110h41q67 0 113 31q45 30 45 75zM1503 176h-344v59v59l344 440h69h69v-445v0h144v-113h-144v0v-176h-138v176v0zM1503 289v0v277v0v0l-213 -272
l-4 -5v0h217z" />
    <glyph glyph-name="questiondown" unicode="&#xbf;" horiz-adv-x="1057" 
d="M679 -309q61 0 120.5 7t95.5 19v0v-144v0q-60 -19 -127.5 -30.5t-122.5 -11.5q-199 0 -312 93t-113 256q0 123 116 261q66 77 191 187q34 30 48 57t14 63v165h160v-226q0 -26 -10.5 -46t-36.5 -43q-154 -135 -217 -216q-72 -92 -72 -175q0 -103 70 -160q69 -56 196 -56z
M767 768h-196v202h196v-202z" />
    <glyph glyph-name="glyph135" horiz-adv-x="0" 
d="M-39 0l-232 264h253l163 -264h-184z" />
    <glyph glyph-name="Agrave" unicode="&#xc0;" horiz-adv-x="1511" 
d="M67 0l579 1411h106h106l579 -1411v0h-105h-105v0l-142 368v0h-664v0l-140 -368v0h-107h-107v0zM753 1229l-270 -701v0h541v0l-271 701v0v0zM713 1531l-232 264h253l163 -264h-184z" />
    <glyph glyph-name="glyph137" horiz-adv-x="0" 
d="M-108 0l163 264h253l-238 -264h-178z" />
    <glyph glyph-name="Aacute" unicode="&#xc1;" horiz-adv-x="1511" 
d="M67 0l579 1411h106h106l579 -1411v0h-105h-105v0l-142 368v0h-664v0l-140 -368v0h-107h-107v0zM753 1229l-270 -701v0h541v0l-271 701v0v0zM644 1531l163 264h253l-238 -264h-178z" />
    <glyph glyph-name="glyph139" horiz-adv-x="0" 
d="M115 261l193 -264h-187l-124 156v0l-124 -156h-181l193 264h115h115z" />
    <glyph glyph-name="Acircumflex" unicode="&#xc2;" horiz-adv-x="1511" 
d="M67 0l579 1411h106h106l579 -1411v0h-105h-105v0l-142 368v0h-664v0l-140 -368v0h-107h-107v0zM753 1229l-270 -701v0h541v0l-271 701v0v0zM867 1792l193 -264h-187l-124 156v0l-124 -156h-181l193 264h115h115z" />
    <glyph glyph-name="glyph141" horiz-adv-x="0" 
d="M-370 -3q4 128 50.5 191.5t136.5 63.5q54 0 93 -12.5t122 -56.5q52 -27 80 -38t47 -11q47 0 65.5 26t20.5 94h125q-2 -128 -51 -191.5t-145 -63.5q-57 0 -94.5 11.5t-111.5 52.5q-53 29 -81 40.5t-45 11.5q-42 0 -61 -25.5t-26 -92.5h-125z" />
    <glyph glyph-name="Atilde" unicode="&#xc3;" horiz-adv-x="1511" 
d="M67 0l579 1411h106h106l579 -1411v0h-105h-105v0l-142 368v0h-664v0l-140 -368v0h-107h-107v0zM753 1229l-270 -701v0h541v0l-271 701v0v0zM382 1528q4 128 50.5 191.5t136.5 63.5q54 0 93 -12.5t122 -56.5q52 -27 80 -38t47 -11q47 0 65.5 26t20.5 94h125
q-2 -128 -51 -191.5t-145 -63.5q-57 0 -94.5 11.5t-111.5 52.5q-53 29 -81 40.5t-45 11.5q-42 0 -61 -25.5t-26 -92.5h-125z" />
    <glyph glyph-name="glyph143" horiz-adv-x="0" 
d="M-290 236h192v-209h-192v209zM77 236h192v-209h-192v209z" />
    <glyph glyph-name="Adieresis" unicode="&#xc4;" horiz-adv-x="1511" 
d="M67 0l579 1411h106h106l579 -1411v0h-105h-105v0l-142 368v0h-664v0l-140 -368v0h-107h-107v0zM753 1229l-270 -701v0h541v0l-271 701v0v0zM462 1767h192v-209h-192v209zM829 1767h192v-209h-192v209z" />
    <glyph glyph-name="glyph145" horiz-adv-x="0" 
d="M0 -42q-108 0 -182.5 76t-74.5 186t74.5 186.5t182.5 76.5t183 -76.5t75 -186.5t-75 -186t-183 -76v0zM0 90q53 0 89 37.5t36 92.5t-36 93t-89 38q-52 0 -88 -38t-36 -93t36 -92.5t88 -37.5v0z" />
    <glyph glyph-name="Aring" unicode="&#xc5;" horiz-adv-x="1511" 
d="M67 0l579 1411h106h106l579 -1411v0h-105h-105v0l-142 368v0h-664v0l-140 -368v0h-107h-107v0zM753 1229l-270 -701v0h541v0l-271 701v0v0zM752 1489q-108 0 -182.5 76t-74.5 186t74.5 186.5t182.5 76.5t183 -76.5t75 -186.5t-75 -186t-183 -76v0zM752 1621q53 0 89 37.5
t36 92.5t-36 93t-89 38q-52 0 -88 -38t-36 -93t36 -92.5t88 -37.5v0z" />
    <glyph glyph-name="AE" unicode="&#xc6;" horiz-adv-x="2001" 
d="M1162 0v0l-68 385v0h-650v0l-206 -385v0h-101h-101v0l795 1411v0h279v0h763v0v-80v-80v0h-735v0l78 -445v0h621v-80v-80v0h-593v0l86 -486v0h543v0v-80v-80v0h-515v0h-196zM935 1294l-405 -749v0h539v0l-134 749v0z" />
    <glyph glyph-name="glyph148" horiz-adv-x="0" 
d="M-251 -391l171 263h161l-116 -263h-216z" />
    <glyph glyph-name="Ccedilla" unicode="&#xc7;" horiz-adv-x="1435" 
d="M1311 374v0q-5 -180 -154 -291t-385 -111q-295 0 -463 193.5t-168 533.5q0 346 168 543t463 197q247 0 393 -109t146 -293v0h-198v0q0 107 -88.5 173t-232.5 66q-216 0 -334.5 -145t-118.5 -409q0 -281 116.5 -435t327.5 -154q140 0 228 64t102 177v0h198zM521 -391
l171 263h161l-116 -263h-216z" />
    <glyph glyph-name="Egrave" unicode="&#xc8;" horiz-adv-x="1171" 
d="M184 0v0v1411v0h860v0v-80v-80v0h-667v0v-445v0h641v-80v-80v0h-641v0v-486v0h685v0v-80v-80v0h-878zM532 1531l-232 264h253l163 -264h-184z" />
    <glyph glyph-name="Eacute" unicode="&#xc9;" horiz-adv-x="1171" 
d="M184 0v0v1411v0h860v0v-80v-80v0h-667v0v-445v0h641v-80v-80v0h-641v0v-486v0h685v0v-80v-80v0h-878zM463 1531l163 264h253l-238 -264h-178z" />
    <glyph glyph-name="Ecircumflex" unicode="&#xca;" horiz-adv-x="1171" 
d="M184 0v0v1411v0h860v0v-80v-80v0h-667v0v-445v0h641v-80v-80v0h-641v0v-486v0h685v0v-80v-80v0h-878zM686 1792l193 -264h-187l-124 156v0l-124 -156h-181l193 264h115h115z" />
    <glyph glyph-name="Edieresis" unicode="&#xcb;" horiz-adv-x="1171" 
d="M184 0v0v1411v0h860v0v-80v-80v0h-667v0v-445v0h641v-80v-80v0h-641v0v-486v0h685v0v-80v-80v0h-878zM323 1767h192v-209h-192v209zM690 1767h192v-209h-192v209z" />
    <glyph glyph-name="Igrave" unicode="&#xcc;" horiz-adv-x="566" 
d="M214 0v1411v0h96h97v0v-1411v0h-96h-97v0zM271 1531l-232 264h253l163 -264h-184z" />
    <glyph glyph-name="Iacute" unicode="&#xcd;" horiz-adv-x="566" 
d="M189 0v1411v0h96h97v0v-1411v0h-96h-97v0zM177 1531l163 264h253l-238 -264h-178z" />
    <glyph glyph-name="Icircumflex" unicode="&#xce;" horiz-adv-x="566" 
d="M192 0v1411v0h96h97v0v-1411v0h-96h-97v0zM403 1792l193 -264h-187l-124 156v0l-124 -156h-181l193 264h115h115z" />
    <glyph glyph-name="Idieresis" unicode="&#xcf;" horiz-adv-x="566" 
d="M199 0v1411v0h96h97v0v-1411v0h-96h-97v0zM5 1767h192v-209h-192v209zM372 1767h192v-209h-192v209z" />
    <glyph glyph-name="Eth" unicode="&#xd0;" horiz-adv-x="1473" 
d="M187 0v0v631v0h-144v150h144v0v630v0h96v0h350q353 0 530 -182t177 -544q0 -341 -167.5 -513t-501.5 -172h-388v0h-96zM380 1251v0v-470v0h291v-150h-291v0v-471v0h291q247 0 362 133.5t114 418.5q1 273 -126 406t-388 133h-253z" />
    <glyph glyph-name="Ntilde" unicode="&#xd1;" horiz-adv-x="1473" 
d="M361 0v0h-96h-96v0v1411v0h125h126v0l689 -1183v0v0v1183v0h96h96v0v-1411h-129h-130l-681 1170v0v0v-1170zM365 1528q4 128 50.5 191.5t136.5 63.5q54 0 93 -12.5t122 -56.5q52 -27 80 -38t47 -11q47 0 65.5 26t20.5 94h125q-2 -128 -51 -191.5t-145 -63.5
q-57 0 -94.5 11.5t-111.5 52.5q-53 29 -81 40.5t-45 11.5q-42 0 -61 -25.5t-26 -92.5h-125z" />
    <glyph glyph-name="Ograve" unicode="&#xd2;" horiz-adv-x="1548" 
d="M767 -28q-295 0 -463.5 197.5t-168.5 544.5q0 339 168.5 532t463.5 193q297 0 465 -193t168 -532q0 -347 -168 -544.5t-465 -197.5v0zM767 132q210 0 325 151.5t115 428.5q0 270 -115 418.5t-325 148.5q-209 0 -324 -148.5t-115 -418.5q0 -277 115 -428.5t324 -151.5v0z
M728 1531l-232 264h253l163 -264h-184z" />
    <glyph glyph-name="Oacute" unicode="&#xd3;" horiz-adv-x="1548" 
d="M767 -28q-295 0 -463.5 197.5t-168.5 544.5q0 339 168.5 532t463.5 193q297 0 465 -193t168 -532q0 -347 -168 -544.5t-465 -197.5v0zM767 132q210 0 325 151.5t115 428.5q0 270 -115 418.5t-325 148.5q-209 0 -324 -148.5t-115 -418.5q0 -277 115 -428.5t324 -151.5v0z
M659 1531l163 264h253l-238 -264h-178z" />
    <glyph glyph-name="Ocircumflex" unicode="&#xd4;" horiz-adv-x="1548" 
d="M767 -28q-295 0 -463.5 197.5t-168.5 544.5q0 339 168.5 532t463.5 193q297 0 465 -193t168 -532q0 -347 -168 -544.5t-465 -197.5v0zM767 132q210 0 325 151.5t115 428.5q0 270 -115 418.5t-325 148.5q-209 0 -324 -148.5t-115 -418.5q0 -277 115 -428.5t324 -151.5v0z
M882 1792l193 -264h-187l-124 156v0l-124 -156h-181l193 264h115h115z" />
    <glyph glyph-name="Otilde" unicode="&#xd5;" horiz-adv-x="1548" 
d="M767 -28q-295 0 -463.5 197.5t-168.5 544.5q0 339 168.5 532t463.5 193q297 0 465 -193t168 -532q0 -347 -168 -544.5t-465 -197.5v0zM767 132q210 0 325 151.5t115 428.5q0 270 -115 418.5t-325 148.5q-209 0 -324 -148.5t-115 -418.5q0 -277 115 -428.5t324 -151.5v0z
M397 1528q4 128 50.5 191.5t136.5 63.5q54 0 93 -12.5t122 -56.5q52 -27 80 -38t47 -11q47 0 65.5 26t20.5 94h125q-2 -128 -51 -191.5t-145 -63.5q-57 0 -94.5 11.5t-111.5 52.5q-53 29 -81 40.5t-45 11.5q-42 0 -61 -25.5t-26 -92.5h-125z" />
    <glyph glyph-name="Odieresis" unicode="&#xd6;" horiz-adv-x="1548" 
d="M767 -28q-295 0 -463.5 197.5t-168.5 544.5q0 339 168.5 532t463.5 193q297 0 465 -193t168 -532q0 -347 -168 -544.5t-465 -197.5v0zM767 132q210 0 325 151.5t115 428.5q0 270 -115 418.5t-325 148.5q-209 0 -324 -148.5t-115 -418.5q0 -277 115 -428.5t324 -151.5v0z
M477 1767h192v-209h-192v209zM844 1767h192v-209h-192v209z" />
    <glyph glyph-name="multiply" unicode="&#xd7;" horiz-adv-x="2039" 
d="M1050 480l-427 -428l-85 85l428 427l-428 427l85 85l427 -428l427 428l85 -85l-428 -427l428 -427l-85 -85z" />
    <glyph glyph-name="Oslash" unicode="&#xd8;" horiz-adv-x="1548" 
d="M123 47l1196 1392l92 -75l-1196 -1392zM767 -28q-295 0 -463.5 197.5t-168.5 544.5q0 339 168.5 532t463.5 193q297 0 465 -193t168 -532q0 -347 -168 -544.5t-465 -197.5v0zM767 132q210 0 325 151.5t115 428.5q0 270 -115 418.5t-325 148.5q-209 0 -324 -148.5
t-115 -418.5q0 -277 115 -428.5t324 -151.5v0z" />
    <glyph glyph-name="Ugrave" unicode="&#xd9;" horiz-adv-x="1473" 
d="M1296 532q0 -262 -148.5 -411t-411.5 -149q-262 0 -411 149t-149 411v879v0h96h97v0v-837q0 -211 96.5 -326.5t271.5 -115.5t271 115.5t96 326.5v837v0h96h96v0v-879zM697 1531l-232 264h253l163 -264h-184z" />
    <glyph glyph-name="Uacute" unicode="&#xda;" horiz-adv-x="1473" 
d="M1296 532q0 -262 -148.5 -411t-411.5 -149q-262 0 -411 149t-149 411v879v0h96h97v0v-837q0 -211 96.5 -326.5t271.5 -115.5t271 115.5t96 326.5v837v0h96h96v0v-879zM628 1531l163 264h253l-238 -264h-178z" />
    <glyph glyph-name="Ucircumflex" unicode="&#xdb;" horiz-adv-x="1473" 
d="M1296 532q0 -262 -148.5 -411t-411.5 -149q-262 0 -411 149t-149 411v879v0h96h97v0v-837q0 -211 96.5 -326.5t271.5 -115.5t271 115.5t96 326.5v837v0h96h96v0v-879zM851 1792l193 -264h-187l-124 156v0l-124 -156h-181l193 264h115h115z" />
    <glyph glyph-name="Udieresis" unicode="&#xdc;" horiz-adv-x="1473" 
d="M1296 532q0 -262 -148.5 -411t-411.5 -149q-262 0 -411 149t-149 411v879v0h96h97v0v-837q0 -211 96.5 -326.5t271.5 -115.5t271 115.5t96 326.5v837v0h96h96v0v-879zM446 1767h192v-209h-192v209zM813 1767h192v-209h-192v209z" />
    <glyph glyph-name="Yacute" unicode="&#xdd;" horiz-adv-x="1397" 
d="M594 574v0l-541 837v0h118h118v0l415 -689v0l418 689v0h102h102v0l-539 -836v0v-575h-96h-97v574zM581 1531l163 264h253l-238 -264h-178z" />
    <glyph glyph-name="Thorn" unicode="&#xde;" horiz-adv-x="1208" 
d="M174 0v1411v0h96h97v0v-262v0h301q247 0 371.5 -100t124.5 -298q0 -190 -132 -298t-364 -108h-301v0v-345v0h-96h-97v0zM971 749q0 117 -77.5 178.5t-224.5 61.5h-302v0v-484v0h302q144 0 223 64t79 180z" />
    <glyph glyph-name="germandbls" unicode="&#xdf;" horiz-adv-x="1246" 
d="M330 980v-980v0h-90h-91v0v980v0q0 233 101.5 332t340.5 99q198 0 310.5 -77t112.5 -212q0 -70 -38.5 -128t-133.5 -129q-39 -30 -55 -55.5t-16 -58.5q0 -27 38.5 -58t123.5 -73q147 -72 213.5 -148.5t66.5 -174.5q0 -152 -112 -238.5t-310 -86.5q-151 0 -243 80.5
t-103 222.5v0h189v0q6 -78 59 -122.5t141 -44.5q89 0 139.5 46t50.5 127q0 57 -38.5 102t-124.5 87q-147 72 -213 136t-66 135q0 62 38.5 116t133.5 126q39 29 55 58t16 70q0 77 -66 120.5t-182 43.5q-120 0 -184 -76q-63 -76 -63 -219z" />
    <glyph glyph-name="glyph174" horiz-adv-x="0" 
d="M-19 0l-265 300h248l188 -300h-171z" />
    <glyph glyph-name="agrave" unicode="&#xe0;" horiz-adv-x="1095" 
d="M475 -28q-169 0 -264.5 81.5t-95.5 225.5q0 156 131 244.5t361 88.5h164v0v83q0 94 -54 137t-174 43q-82 0 -132 -39.5t-56 -109.5v0h-190v0q11 148 106 216.5t287 68.5q177 0 285.5 -87t108.5 -229v-342q0 -140 7 -234t20 -119v0v0h-172v0q-11 13 -17 66q-5 35 -7 84v0
q-18 -32 -41 -61q-97 -117 -267 -117zM771 404v74v0h-166q-154 0 -230.5 -50t-76.5 -150q0 -81 54 -125.5t153 -44.5q133 0 199 75t67 221v0zM540 1103l-265 300h248l188 -300h-171z" />
    <glyph glyph-name="glyph176" horiz-adv-x="0" 
d="M-126 0l190 300h245l-263 -300h-172z" />
    <glyph glyph-name="aacute" unicode="&#xe1;" horiz-adv-x="1095" 
d="M475 -28q-169 0 -264.5 81.5t-95.5 225.5q0 156 131 244.5t361 88.5h164v0v83q0 94 -54 137t-174 43q-82 0 -132 -39.5t-56 -109.5v0h-190v0q11 148 106 216.5t287 68.5q177 0 285.5 -87t108.5 -229v-342q0 -140 7 -234t20 -119v0v0h-172v0q-11 13 -17 66q-5 35 -7 84v0
q-18 -32 -41 -61q-97 -117 -267 -117zM771 404v74v0h-166q-154 0 -230.5 -50t-76.5 -150q0 -81 54 -125.5t153 -44.5q133 0 199 75t67 221v0zM433 1103l190 300h245l-263 -300h-172z" />
    <glyph glyph-name="glyph178" horiz-adv-x="0" 
d="M95 293l213 -293h-151l-157 181v0l-157 -181h-151l213 293h95h95z" />
    <glyph glyph-name="acircumflex" unicode="&#xe2;" horiz-adv-x="1095" 
d="M475 -28q-169 0 -264.5 81.5t-95.5 225.5q0 156 131 244.5t361 88.5h164v0v83q0 94 -54 137t-174 43q-82 0 -132 -39.5t-56 -109.5v0h-190v0q11 148 106 216.5t287 68.5q177 0 285.5 -87t108.5 -229v-342q0 -140 7 -234t20 -119v0v0h-172v0q-11 13 -17 66q-5 35 -7 84v0
q-18 -32 -41 -61q-97 -117 -267 -117zM771 404v74v0h-166q-154 0 -230.5 -50t-76.5 -150q0 -81 54 -125.5t153 -44.5q133 0 199 75t67 221v0zM654 1396l213 -293h-151l-157 181v0l-157 -181h-151l213 293h95h95z" />
    <glyph glyph-name="glyph180" horiz-adv-x="0" 
d="M-338 74q18 128 62 187t120 59q38 0 72 -11.5t116 -53.5q43 -22 68.5 -30.5t47.5 -8.5q31 0 46.5 21.5t26.5 77.5h117q-8 -128 -51.5 -187t-130.5 -59q-45 0 -78.5 11t-109.5 49q-49 25 -74 35t-40 10q-32 0 -48 -21.5t-27 -78.5h-117z" />
    <glyph glyph-name="atilde" unicode="&#xe3;" horiz-adv-x="1095" 
d="M475 -28q-169 0 -264.5 81.5t-95.5 225.5q0 156 131 244.5t361 88.5h164v0v83q0 94 -54 137t-174 43q-82 0 -132 -39.5t-56 -109.5v0h-190v0q11 148 106 216.5t287 68.5q177 0 285.5 -87t108.5 -229v-342q0 -140 7 -234t20 -119v0v0h-172v0q-11 13 -17 66q-5 35 -7 84v0
q-18 -32 -41 -61q-97 -117 -267 -117zM771 404v74v0h-166q-154 0 -230.5 -50t-76.5 -150q0 -81 54 -125.5t153 -44.5q133 0 199 75t67 221v0zM221 1177q18 128 62 187t120 59q38 0 72 -11.5t116 -53.5q43 -22 68.5 -30.5t47.5 -8.5q31 0 46.5 21.5t26.5 77.5h117
q-8 -128 -51.5 -187t-130.5 -59q-45 0 -78.5 11t-109.5 49q-49 25 -74 35t-40 10q-32 0 -48 -21.5t-27 -78.5h-117z" />
    <glyph glyph-name="glyph182" horiz-adv-x="0" 
d="M-276 272h192v-208h-192v208zM85 272h192v-208h-192v208z" />
    <glyph glyph-name="adieresis" unicode="&#xe4;" horiz-adv-x="1095" 
d="M475 -28q-169 0 -264.5 81.5t-95.5 225.5q0 156 131 244.5t361 88.5h164v0v83q0 94 -54 137t-174 43q-82 0 -132 -39.5t-56 -109.5v0h-190v0q11 148 106 216.5t287 68.5q177 0 285.5 -87t108.5 -229v-342q0 -140 7 -234t20 -119v0v0h-172v0q-11 13 -17 66q-5 35 -7 84v0
q-18 -32 -41 -61q-97 -117 -267 -117zM771 404v74v0h-166q-154 0 -230.5 -50t-76.5 -150q0 -81 54 -125.5t153 -44.5q133 0 199 75t67 221v0zM283 1375h192v-208h-192v208zM644 1375h192v-208h-192v208z" />
    <glyph glyph-name="glyph184" horiz-adv-x="0" 
d="M0 -7q-99 0 -167 71t-68 173q0 103 68 174t167 71t167.5 -71t68.5 -174q0 -102 -68.5 -173t-167.5 -71v0zM0 126q50 0 84.5 32t34.5 79t-34.5 79.5t-84.5 32.5t-84 -32.5t-34 -79.5t34 -79t84 -32v0z" />
    <glyph glyph-name="aring" unicode="&#xe5;" horiz-adv-x="1095" 
d="M475 -28q-169 0 -264.5 81.5t-95.5 225.5q0 156 131 244.5t361 88.5h164v0v83q0 94 -54 137t-174 43q-82 0 -132 -39.5t-56 -109.5v0h-190v0q11 148 106 216.5t287 68.5q177 0 285.5 -87t108.5 -229v-342q0 -140 7 -234t20 -119v0v0h-172v0q-11 13 -17 66q-5 35 -7 84v0
q-18 -32 -41 -61q-97 -117 -267 -117zM771 404v74v0h-166q-154 0 -230.5 -50t-76.5 -150q0 -81 54 -125.5t153 -44.5q133 0 199 75t67 221v0zM559 1096q-99 0 -167 71t-68 173q0 103 68 174t167 71t167.5 -71t68.5 -174q0 -102 -68.5 -173t-167.5 -71v0zM559 1229
q50 0 84.5 32t34.5 79t-34.5 79.5t-84.5 32.5t-84 -32.5t-34 -79.5t34 -79t84 -32v0z" />
    <glyph glyph-name="ae" unicode="&#xe6;" horiz-adv-x="1737" 
d="M552 1011q204 0 299 -109q18 -20 32 -45l-1 -1q133 155 324 155q206 0 314 -123.5t108 -359.5l-2 -76v0h-688v0q8 -161 62 -245q64 -99 200 -99q96 0 158 55t74 152v0h187v0q-21 -167 -126.5 -255t-286.5 -88q-191 0 -324 147l-41 51v0q-23 -45 -57 -83
q-104 -115 -286 -115t-285 80.5t-103 221.5q0 154 128.5 241.5t355.5 87.5h161v0v64q0 109 -53 158.5t-169 49.5q-80 0 -128.5 -42.5t-54.5 -116.5v0h-190v0q12 153 106.5 224t285.5 71zM755 399v70v0h-162q-150 0 -225 -49t-75 -147q0 -79 53 -122t150 -43
q130 0 194.5 73.5t64.5 217.5v0zM1443 587v0q-8 143 -56 208q-58 80 -197 80q-121 0 -188 -93q-51 -72 -64 -195v0h505z" />
    <glyph glyph-name="glyph187" horiz-adv-x="0" 
d="M-252 -391l172 263h161l-117 -263h-216z" />
    <glyph glyph-name="ccedilla" unicode="&#xe7;" horiz-adv-x="1095" 
d="M988 334v0q-14 -180 -116 -271t-290 -91q-241 0 -357.5 129t-117.5 396q0 241 126.5 377.5t348.5 136.5q181 0 286.5 -91t110.5 -252v0h-185v0q-3 97 -64.5 152t-166.5 55q-136 0 -199.5 -91.5t-63.5 -287.5q0 -204 62 -296t201 -92q117 0 175.5 54.5t67.5 171.5v0h182z
M330 -391l172 263h161l-117 -263h-216z" />
    <glyph glyph-name="egrave" unicode="&#xe8;" horiz-adv-x="1095" 
d="M565 -28q-217 0 -340 134t-123 370q0 250 123.5 392.5t339.5 142.5q209 0 319 -123.5t110 -359.5l-2 -66v0h-701v0q7 -168 64 -255q65 -99 205 -99q99 0 162.5 55t75.5 152v0h187v0q-21 -167 -128.5 -255t-291.5 -88zM808 597v0q-9 135 -56 198q-59 80 -202 80
q-124 0 -193 -93q-52 -70 -64 -185v0h515zM547 1103l-265 300h248l188 -300h-171z" />
    <glyph glyph-name="eacute" unicode="&#xe9;" horiz-adv-x="1095" 
d="M565 -28q-217 0 -340 134t-123 370q0 250 123.5 392.5t339.5 142.5q209 0 319 -123.5t110 -359.5l-2 -66v0h-701v0q7 -168 64 -255q65 -99 205 -99q99 0 162.5 55t75.5 152v0h187v0q-21 -167 -128.5 -255t-291.5 -88zM808 597v0q-9 135 -56 198q-59 80 -202 80
q-124 0 -193 -93q-52 -70 -64 -185v0h515zM440 1103l190 300h245l-263 -300h-172z" />
    <glyph glyph-name="ecircumflex" unicode="&#xea;" horiz-adv-x="1095" 
d="M565 -28q-217 0 -340 134t-123 370q0 250 123.5 392.5t339.5 142.5q209 0 319 -123.5t110 -359.5l-2 -66v0h-701v0q7 -168 64 -255q65 -99 205 -99q99 0 162.5 55t75.5 152v0h187v0q-21 -167 -128.5 -255t-291.5 -88zM808 597v0q-9 135 -56 198q-59 80 -202 80
q-124 0 -193 -93q-52 -70 -64 -185v0h515zM661 1396l213 -293h-151l-157 181v0l-157 -181h-151l213 293h95h95z" />
    <glyph glyph-name="edieresis" unicode="&#xeb;" horiz-adv-x="1095" 
d="M565 -28q-217 0 -340 134t-123 370q0 250 123.5 392.5t339.5 142.5q209 0 319 -123.5t110 -359.5l-2 -66v0h-701v0q7 -168 64 -255q65 -99 205 -99q99 0 162.5 55t75.5 152v0h187v0q-21 -167 -128.5 -255t-291.5 -88zM808 597v0q-9 135 -56 198q-59 80 -202 80
q-124 0 -193 -93q-52 -70 -64 -185v0h515zM290 1375h192v-208h-192v208zM651 1375h192v-208h-192v208z" />
    <glyph glyph-name="dotlessi" unicode="&#x131;" horiz-adv-x="491" 
d="M153 0v983v0h90h91v0v-983v0h-90h-91v0z" />
    <glyph glyph-name="igrave" unicode="&#xec;" horiz-adv-x="491" 
d="M158 0v983v0h90h91v0v-983v0h-90h-91v0zM257 1103l-265 300h248l188 -300h-171z" />
    <glyph glyph-name="iacute" unicode="&#xed;" horiz-adv-x="491" 
d="M159 0v983v0h90h91v0v-983v0h-90h-91v0zM137 1103l190 300h245l-263 -300h-172z" />
    <glyph glyph-name="icircumflex" unicode="&#xee;" horiz-adv-x="491" 
d="M156 0v983v0h90h91v0v-983v0h-90h-91v0zM341 1396l213 -293h-151l-157 181v0l-157 -181h-151l213 293h95h95z" />
    <glyph glyph-name="idieresis" unicode="&#xef;" horiz-adv-x="491" 
d="M151 0v983v0h90h91v0v-983v0h-90h-91v0zM-35 1375h192v-208h-192v208zM326 1375h192v-208h-192v208z" />
    <glyph glyph-name="eth" unicode="&#xf0;" horiz-adv-x="1171" 
d="M585 -28q-223 0 -350 139.5t-127 384.5q0 240 127 376.5t350 136.5q80 0 154 -33l-3 3q-133 219 -400 383l154 63q287 -176 430 -409.5t142 -526.5v-4q0 -231 -131 -372t-346 -141zM301 495q0 -185 74.5 -286t209.5 -101t209.5 101t74.5 286q0 180 -74.5 279t-209.5 99
t-210 -99q-74 -99 -74 -279zM319 1184l534 199l38 -111l-534 -199z" />
    <glyph glyph-name="ntilde" unicode="&#xf1;" horiz-adv-x="1171" 
d="M147 0v983v0h84h84v0v-136v0v0q14 21 31 39q112 125 302 125q194 0 285 -103t91 -322v-586v0h-90h-91v0v583q0 151 -57 219t-182 68q-145 0 -210.5 -74.5t-65.5 -239.5v0v-556v0h-90h-91v0zM247 1177q18 128 62 187t120 59q38 0 72 -11.5t116 -53.5q43 -22 68.5 -30.5
t47.5 -8.5q31 0 46.5 21.5t26.5 77.5h117q-8 -128 -51.5 -187t-130.5 -59q-45 0 -78.5 11t-109.5 49q-49 25 -74 35t-40 10q-32 0 -48 -21.5t-27 -78.5h-117z" />
    <glyph glyph-name="ograve" unicode="&#xf2;" horiz-adv-x="1171" 
d="M580 -28q-222 0 -348.5 139.5t-126.5 385.5q0 241 126.5 377.5t348.5 136.5q223 0 349 -136.5t126 -377.5q0 -246 -126 -385.5t-349 -139.5v0zM580 108q134 0 208 101.5t74 286.5q0 181 -74 280t-208 99t-208 -99t-74 -280q0 -185 74 -286.5t208 -101.5v0zM561 1103
l-265 300h248l188 -300h-171z" />
    <glyph glyph-name="oacute" unicode="&#xf3;" horiz-adv-x="1171" 
d="M580 -28q-222 0 -348.5 139.5t-126.5 385.5q0 241 126.5 377.5t348.5 136.5q223 0 349 -136.5t126 -377.5q0 -246 -126 -385.5t-349 -139.5v0zM580 108q134 0 208 101.5t74 286.5q0 181 -74 280t-208 99t-208 -99t-74 -280q0 -185 74 -286.5t208 -101.5v0zM454 1103
l190 300h245l-263 -300h-172z" />
    <glyph glyph-name="ocircumflex" unicode="&#xf4;" horiz-adv-x="1171" 
d="M580 -28q-222 0 -348.5 139.5t-126.5 385.5q0 241 126.5 377.5t348.5 136.5q223 0 349 -136.5t126 -377.5q0 -246 -126 -385.5t-349 -139.5v0zM580 108q134 0 208 101.5t74 286.5q0 181 -74 280t-208 99t-208 -99t-74 -280q0 -185 74 -286.5t208 -101.5v0zM675 1396
l213 -293h-151l-157 181v0l-157 -181h-151l213 293h95h95z" />
    <glyph glyph-name="otilde" unicode="&#xf5;" horiz-adv-x="1171" 
d="M580 -28q-222 0 -348.5 139.5t-126.5 385.5q0 241 126.5 377.5t348.5 136.5q223 0 349 -136.5t126 -377.5q0 -246 -126 -385.5t-349 -139.5v0zM580 108q134 0 208 101.5t74 286.5q0 181 -74 280t-208 99t-208 -99t-74 -280q0 -185 74 -286.5t208 -101.5v0zM242 1177
q18 128 62 187t120 59q38 0 72 -11.5t116 -53.5q43 -22 68.5 -30.5t47.5 -8.5q31 0 46.5 21.5t26.5 77.5h117q-8 -128 -51.5 -187t-130.5 -59q-45 0 -78.5 11t-109.5 49q-49 25 -74 35t-40 10q-32 0 -48 -21.5t-27 -78.5h-117z" />
    <glyph glyph-name="odieresis" unicode="&#xf6;" horiz-adv-x="1171" 
d="M580 -28q-222 0 -348.5 139.5t-126.5 385.5q0 241 126.5 377.5t348.5 136.5q223 0 349 -136.5t126 -377.5q0 -246 -126 -385.5t-349 -139.5v0zM580 108q134 0 208 101.5t74 286.5q0 181 -74 280t-208 99t-208 -99t-74 -280q0 -185 74 -286.5t208 -101.5v0zM304 1375h192
v-208h-192v208zM665 1375h192v-208h-192v208z" />
    <glyph glyph-name="divide" unicode="&#xf7;" horiz-adv-x="2039" 
d="M1047 368q40 0 68 -28t28 -68t-28 -68t-68 -28t-68 28t-28 68t28 68t68 28zM472 624h1150v-120h-1150v120zM1047 952q40 0 68 -28t28 -68t-28 -68t-68 -28t-68 28t-28 68t28 68t68 28z" />
    <glyph glyph-name="oslash" unicode="&#xf8;" horiz-adv-x="1171" 
d="M104 42l889 970l75 -71l-889 -970zM586 -28q-222 0 -348.5 139.5t-126.5 385.5q0 241 126.5 377.5t348.5 136.5q223 0 349 -136.5t126 -377.5q0 -246 -126 -385.5t-349 -139.5v0zM586 108q134 0 208 101.5t74 286.5q0 181 -74 280t-208 99t-208 -99t-74 -280
q0 -185 74 -286.5t208 -101.5v0z" />
    <glyph glyph-name="ugrave" unicode="&#xf9;" horiz-adv-x="1171" 
d="M320 983v-589q0 -151 57 -219t182 -68q152 0 217.5 76t57.5 243v0v557v0h90h91v0v-983v0h-84h-84v0v128v0v0l-20 -26q-114 -131 -302 -131q-199 0 -292.5 105.5t-93.5 330.5v576v0h90h91v0zM558 1103l-265 300h248l188 -300h-171z" />
    <glyph glyph-name="uacute" unicode="&#xfa;" horiz-adv-x="1171" 
d="M320 983v-589q0 -151 57 -219t182 -68q152 0 217.5 76t57.5 243v0v557v0h90h91v0v-983v0h-84h-84v0v128v0v0l-20 -26q-114 -131 -302 -131q-199 0 -292.5 105.5t-93.5 330.5v576v0h90h91v0zM451 1103l190 300h245l-263 -300h-172z" />
    <glyph glyph-name="ucircumflex" unicode="&#xfb;" horiz-adv-x="1171" 
d="M320 983v-589q0 -151 57 -219t182 -68q152 0 217.5 76t57.5 243v0v557v0h90h91v0v-983v0h-84h-84v0v128v0v0l-20 -26q-114 -131 -302 -131q-199 0 -292.5 105.5t-93.5 330.5v576v0h90h91v0zM672 1396l213 -293h-151l-157 181v0l-157 -181h-151l213 293h95h95z" />
    <glyph glyph-name="udieresis" unicode="&#xfc;" horiz-adv-x="1171" 
d="M320 983v-589q0 -151 57 -219t182 -68q152 0 217.5 76t57.5 243v0v557v0h90h91v0v-983v0h-84h-84v0v128v0v0l-20 -26q-114 -131 -302 -131q-199 0 -292.5 105.5t-93.5 330.5v576v0h90h91v0zM301 1375h192v-208h-192v208zM662 1375h192v-208h-192v208z" />
    <glyph glyph-name="yacute" unicode="&#xfd;" horiz-adv-x="1133" 
d="M513 -363v0h-91h-91v0l150 359v0l-415 987v0h97h98v0l317 -779v0v0l299 779v0h96h96v0zM441 1103l190 300h245l-263 -300h-172z" />
    <glyph glyph-name="thorn" unicode="&#xfe;" horiz-adv-x="1171" 
d="M150 1411v0h90h91v0v-556v0l14 18q110 138 303 138q194 0 303.5 -136.5t109.5 -377.5q0 -246 -111.5 -385.5t-309.5 -139.5q-195 0 -307 139l-2 2v-480v0h-90h-91v0v1778zM603 106q131 0 203 102t72 288q0 182 -71.5 281.5t-202.5 99.5q-130 0 -201.5 -100.5
t-71.5 -284.5v0v0v0q0 -184 71 -285t201 -101z" />
    <glyph glyph-name="ydieresis" unicode="&#xff;" horiz-adv-x="1133" 
d="M513 -363v0h-91h-91v0l150 359v0l-415 987v0h97h98v0l317 -779v0v0l299 779v0h96h96v0zM291 1375h192v-208h-192v208zM652 1375h192v-208h-192v208z" />
    <glyph glyph-name="glyph214" horiz-adv-x="0" 
d="M-331 144h662v-126h-662v126z" />
    <glyph glyph-name="Amacron" unicode="&#x100;" horiz-adv-x="1511" 
d="M67 0l579 1411h106h106l579 -1411v0h-105h-105v0l-142 368v0h-664v0l-140 -368v0h-107h-107v0zM753 1229l-270 -701v0h541v0l-271 701v0v0zM421 1675h662v-126h-662v126z" />
    <glyph glyph-name="glyph216" horiz-adv-x="0" 
d="M-339 200h678v-138h-678v138z" />
    <glyph glyph-name="amacron" unicode="&#x101;" horiz-adv-x="1095" 
d="M475 -28q-169 0 -264.5 81.5t-95.5 225.5q0 156 131 244.5t361 88.5h164v0v83q0 94 -54 137t-174 43q-82 0 -132 -39.5t-56 -109.5v0h-190v0q11 148 106 216.5t287 68.5q177 0 285.5 -87t108.5 -229v-342q0 -140 7 -234t20 -119v0v0h-172v0q-11 13 -17 66q-5 35 -7 84v0
q-18 -32 -41 -61q-97 -117 -267 -117zM771 404v74v0h-166q-154 0 -230.5 -50t-76.5 -150q0 -81 54 -125.5t153 -44.5q133 0 199 75t67 221v0zM220 1303h678v-138h-678v138z" />
    <glyph glyph-name="glyph218" horiz-adv-x="0" 
d="M0 -9q-143 0 -224 70t-87 200h136q7 -79 48.5 -114t126.5 -35q74 0 120 39t55 110h136q-10 -132 -89.5 -201t-221.5 -69z" />
    <glyph glyph-name="Abreve" unicode="&#x102;" horiz-adv-x="1511" 
d="M67 0l579 1411h106h106l579 -1411v0h-105h-105v0l-142 368v0h-664v0l-140 -368v0h-107h-107v0zM753 1229l-270 -701v0h541v0l-271 701v0v0zM752 1522q-143 0 -224 70t-87 200h136q7 -79 48.5 -114t126.5 -35q74 0 120 39t55 110h136q-10 -132 -89.5 -201t-221.5 -69z" />
    <glyph glyph-name="glyph220" horiz-adv-x="0" 
d="M0 -6q-145 0 -226 76.5t-85 217.5h136q7 -92 48 -132.5t127 -40.5q83 0 129 45.5t46 127.5h136q0 -144 -79.5 -219t-231.5 -75z" />
    <glyph glyph-name="abreve" unicode="&#x103;" horiz-adv-x="1095" 
d="M475 -28q-169 0 -264.5 81.5t-95.5 225.5q0 156 131 244.5t361 88.5h164v0v83q0 94 -54 137t-174 43q-82 0 -132 -39.5t-56 -109.5v0h-190v0q11 148 106 216.5t287 68.5q177 0 285.5 -87t108.5 -229v-342q0 -140 7 -234t20 -119v0v0h-172v0q-11 13 -17 66q-5 35 -7 84v0
q-18 -32 -41 -61q-97 -117 -267 -117zM771 404v74v0h-166q-154 0 -230.5 -50t-76.5 -150q0 -81 54 -125.5t153 -44.5q133 0 199 75t67 221v0zM559 1097q-145 0 -226 76.5t-85 217.5h136q7 -92 48 -132.5t127 -40.5q83 0 129 45.5t46 127.5h136q0 -144 -79.5 -219t-231.5 -75
z" />
    <glyph glyph-name="glyph222" horiz-adv-x="0" 
d="M-96 -143q0 53 24 98.5t72 84.5h122q-36 -21 -60.5 -63t-24.5 -81q0 -54 37.5 -84.5t104.5 -30.5q4 0 36 1v-132h-37q-115 0 -195 60q-79 60 -79 147z" />
    <glyph glyph-name="Aogonek" unicode="&#x104;" horiz-adv-x="1511" 
d="M67 0l579 1411h106h106l579 -1411v0h-105h-105v0l-142 368v0h-664v0l-140 -368v0h-107h-107v0zM753 1229l-270 -701v0h541v0l-271 701v0v0zM1131 -143q0 53 24 98.5t72 84.5h122q-36 -21 -60.5 -63t-24.5 -81q0 -54 37.5 -84.5t104.5 -30.5q4 0 36 1v-132h-37
q-115 0 -195 60q-79 60 -79 147z" />
    <glyph glyph-name="glyph224" horiz-adv-x="0" 
d="M-183 -192q0 89 45.5 165t137.5 140q-28 -66 -47.5 -129.5t-19.5 -89.5q0 -40 26.5 -64t70.5 -24q16 0 31.5 1t27.5 2v-173h-82q-89 0 -140 46q-50 45 -50 126z" />
    <glyph glyph-name="aogonek" unicode="&#x105;" horiz-adv-x="1095" 
d="M475 -28q-169 0 -264.5 81.5t-95.5 225.5q0 156 131 244.5t361 88.5h164v0v83q0 94 -54 137t-174 43q-82 0 -132 -39.5t-56 -109.5v0h-190v0q11 148 106 216.5t287 68.5q177 0 285.5 -87t108.5 -229v-342q0 -140 7 -234t20 -119v0v0h-172v0q-11 13 -17 66q-5 35 -7 84v0
q-18 -32 -41 -61q-97 -117 -267 -117zM771 404v74v0h-166q-154 0 -230.5 -50t-76.5 -150q0 -81 54 -125.5t153 -44.5q133 0 199 75t67 221v0zM723 -192q0 89 45.5 165t137.5 140q-28 -66 -47.5 -129.5t-19.5 -89.5q0 -40 26.5 -64t70.5 -24q16 0 31.5 1t27.5 2v-173h-82
q-89 0 -140 46q-50 45 -50 126z" />
    <glyph glyph-name="Cacute" unicode="&#x106;" horiz-adv-x="1435" 
d="M1311 374v0q-5 -180 -154 -291t-385 -111q-295 0 -463 193.5t-168 533.5q0 346 168 543t463 197q247 0 393 -109t146 -293v0h-198v0q0 107 -88.5 173t-232.5 66q-216 0 -334.5 -145t-118.5 -409q0 -281 116.5 -435t327.5 -154q140 0 228 64t102 177v0h198zM664 1531
l163 264h253l-238 -264h-178z" />
    <glyph glyph-name="cacute" unicode="&#x107;" horiz-adv-x="1095" 
d="M988 334v0q-14 -180 -116 -271t-290 -91q-241 0 -357.5 129t-117.5 396q0 241 126.5 377.5t348.5 136.5q181 0 286.5 -91t110.5 -252v0h-185v0q-3 97 -64.5 152t-166.5 55q-136 0 -199.5 -91.5t-63.5 -287.5q0 -204 62 -296t201 -92q117 0 175.5 54.5t67.5 171.5v0h182z
M456 1103l190 300h245l-263 -300h-172z" />
    <glyph glyph-name="glyph228" horiz-adv-x="0" 
d="M-115 0l-194 264h187l125 -156v0l125 156h181l-194 -264h-115h-115z" />
    <glyph glyph-name="Ccaron" unicode="&#x10c;" horiz-adv-x="1435" 
d="M1311 374v0q-5 -180 -154 -291t-385 -111q-295 0 -463 193.5t-168 533.5q0 346 168 543t463 197q247 0 393 -109t146 -293v0h-198v0q0 107 -88.5 173t-232.5 66q-216 0 -334.5 -145t-118.5 -409q0 -281 116.5 -435t327.5 -154q140 0 228 64t102 177v0h198zM657 1531
l-194 264h187l125 -156v0l125 156h181l-194 -264h-115h-115z" />
    <glyph glyph-name="glyph230" horiz-adv-x="0" 
d="M-95 1l-213 293h151l157 -181v0l157 181h151l-213 -293h-95h-95z" />
    <glyph glyph-name="ccaron" unicode="&#x10d;" horiz-adv-x="1095" 
d="M988 334v0q-14 -180 -116 -271t-290 -91q-241 0 -357.5 129t-117.5 396q0 241 126.5 377.5t348.5 136.5q181 0 286.5 -91t110.5 -252v0h-185v0q-3 97 -64.5 152t-166.5 55q-136 0 -199.5 -91.5t-63.5 -287.5q0 -204 62 -296t201 -92q117 0 175.5 54.5t67.5 171.5v0h182z
M487 1104l-213 293h151l157 -181v0l157 181h151l-213 -293h-95h-95z" />
    <glyph glyph-name="Dcaron" unicode="&#x10e;" horiz-adv-x="1473" 
d="M186 0v1411v0h96v0h351q354 0 532 -182t178 -544q0 -341 -168.5 -513t-503.5 -172h-389v0h-96v0zM379 160v0h293q248 0 363.5 133.5t114.5 418.5q1 273 -127 406t-390 133h-254v0v-1091zM590 1531l-194 264h187l125 -156v0l125 156h181l-194 -264h-115h-115z" />
    <glyph glyph-name="glyph233" horiz-adv-x="0" 
d="M-319 -28q-192 0 -301.5 139.5t-109.5 385.5q0 241 111.5 377.5t307.5 136.5q197 0 309 -138l2 -2v540v0h90h91v0v-1411v0h-90h-91v0v130v0l-15 -19q-111 -139 -304 -139zM-269 877q-128 0 -198.5 -99.5t-70.5 -281.5q0 -186 70.5 -288t198.5 -102t198.5 101t70.5 285
t-70.5 284.5t-198.5 100.5z" />
    <glyph glyph-name="glyph234" horiz-adv-x="0" 
d="M0 106l116 423h199l-201 -423h-114z" />
    <glyph glyph-name="dcaron" unicode="&#x10f;" horiz-adv-x="1360" 
d="M505 -28q-192 0 -301.5 139.5t-109.5 385.5q0 241 111.5 377.5t307.5 136.5q197 0 309 -138l2 -2v540v0h90h91v0v-1411v0h-90h-91v0v130v0l-15 -19q-111 -139 -304 -139zM555 877q-128 0 -198.5 -99.5t-70.5 -281.5q0 -186 70.5 -288t198.5 -102t198.5 101t70.5 285
t-70.5 284.5t-198.5 100.5zM1125 1094l116 423h199l-201 -423h-114z" />
    <glyph glyph-name="Dcroat" unicode="&#x110;" horiz-adv-x="1473" 
d="M187 0v0v631v0h-144v150h144v0v630v0h96v0h350q353 0 530 -182t177 -544q0 -341 -167.5 -513t-501.5 -172h-388v0h-96zM380 1251v0v-470v0h291v-150h-291v0v-471v0h291q247 0 362 133.5t114 418.5q1 273 -126 406t-388 133h-253z" />
    <glyph glyph-name="dcroat" unicode="&#x111;" horiz-adv-x="1171" 
d="M505 -28q-192 0 -301.5 139.5t-109.5 385.5q0 241 111.5 377.5t307.5 136.5q197 0 309 -138l2 -2v540v0h90h91v0v-1411v0h-90h-91v0v130v0l-15 -19q-111 -139 -304 -139zM555 877q-128 0 -198.5 -99.5t-70.5 -281.5q0 -186 70.5 -288t198.5 -102t198.5 101t70.5 285
t-70.5 284.5t-198.5 100.5zM616 1228h510v-114h-510v114z" />
    <glyph glyph-name="Emacron" unicode="&#x112;" horiz-adv-x="1171" 
d="M184 0v0v1411v0h860v0v-80v-80v0h-667v0v-445v0h641v-80v-80v0h-641v0v-486v0h685v0v-80v-80v0h-878zM282 1675h662v-126h-662v126z" />
    <glyph glyph-name="emacron" unicode="&#x113;" horiz-adv-x="1095" 
d="M565 -28q-217 0 -340 134t-123 370q0 250 123.5 392.5t339.5 142.5q209 0 319 -123.5t110 -359.5l-2 -66v0h-701v0q7 -168 64 -255q65 -99 205 -99q99 0 162.5 55t75.5 152v0h187v0q-21 -167 -128.5 -255t-291.5 -88zM808 597v0q-9 135 -56 198q-59 80 -202 80
q-124 0 -193 -93q-52 -70 -64 -185v0h515zM227 1303h678v-138h-678v138z" />
    <glyph glyph-name="glyph240" horiz-adv-x="0" 
d="M-96 229h192v-210h-192v210z" />
    <glyph glyph-name="Edotaccent" unicode="&#x116;" horiz-adv-x="1171" 
d="M184 0v0v1411v0h860v0v-80v-80v0h-667v0v-445v0h641v-80v-80v0h-641v0v-486v0h685v0v-80v-80v0h-878zM560 1760h192v-210h-192v210z" />
    <glyph glyph-name="glyph242" horiz-adv-x="0" 
d="M-96 272h192v-210h-192v210z" />
    <glyph glyph-name="edotaccent" unicode="&#x117;" horiz-adv-x="1095" 
d="M565 -28q-217 0 -340 134t-123 370q0 250 123.5 392.5t339.5 142.5q209 0 319 -123.5t110 -359.5l-2 -66v0h-701v0q7 -168 64 -255q65 -99 205 -99q99 0 162.5 55t75.5 152v0h187v0q-21 -167 -128.5 -255t-291.5 -88zM808 597v0q-9 135 -56 198q-59 80 -202 80
q-124 0 -193 -93q-52 -70 -64 -185v0h515zM470 1375h192v-210h-192v210z" />
    <glyph glyph-name="Eogonek" unicode="&#x118;" horiz-adv-x="1171" 
d="M184 0v0v1411v0h860v0v-80v-80v0h-667v0v-445v0h641v-80v-80v0h-641v0v-486v0h685v0v-80v-80v0h-878zM790 -143q0 53 24 98.5t72 84.5h122q-36 -21 -60.5 -63t-24.5 -81q0 -54 37.5 -84.5t104.5 -30.5q4 0 36 1v-132h-37q-115 0 -195 60q-79 60 -79 147z" />
    <glyph glyph-name="eogonek" unicode="&#x119;" horiz-adv-x="1095" 
d="M565 -28q-217 0 -340 134t-123 370q0 250 123.5 392.5t339.5 142.5q209 0 319 -123.5t110 -359.5l-2 -66v0h-701v0q7 -168 64 -255q65 -99 205 -99q99 0 162.5 55t75.5 152v0h187v0q-21 -167 -128.5 -255t-291.5 -88zM808 597v0q-9 135 -56 198q-59 80 -202 80
q-124 0 -193 -93q-52 -70 -64 -185v0h515zM677 -192q0 89 45.5 165t137.5 140q-28 -66 -47.5 -129.5t-19.5 -89.5q0 -40 26.5 -64t70.5 -24q16 0 31.5 1t27.5 2v-173h-82q-89 0 -140 46q-50 45 -50 126z" />
    <glyph glyph-name="Ecaron" unicode="&#x11a;" horiz-adv-x="1171" 
d="M184 0v0v1411v0h860v0v-80v-80v0h-667v0v-445v0h641v-80v-80v0h-641v0v-486v0h685v0v-80v-80v0h-878zM527 1531l-194 264h187l125 -156v0l125 156h181l-194 -264h-115h-115z" />
    <glyph glyph-name="ecaron" unicode="&#x11b;" horiz-adv-x="1095" 
d="M565 -28q-217 0 -340 134t-123 370q0 250 123.5 392.5t339.5 142.5q209 0 319 -123.5t110 -359.5l-2 -66v0h-701v0q7 -168 64 -255q65 -99 205 -99q99 0 162.5 55t75.5 152v0h187v0q-21 -167 -128.5 -255t-291.5 -88zM808 597v0q-9 135 -56 198q-59 80 -202 80
q-124 0 -193 -93q-52 -70 -64 -185v0h515zM471 1104l-213 293h151l157 -181v0l157 181h151l-213 -293h-95h-95z" />
    <glyph glyph-name="Gbreve" unicode="&#x11e;" horiz-adv-x="1511" 
d="M794 -28q-310 0 -486.5 189.5t-176.5 522.5q0 353 180.5 554t496.5 201q239 0 380.5 -105t141.5 -283v0h-193v0q-8 101 -99 163t-230 62q-230 0 -357 -148t-127 -418q0 -281 124.5 -429.5t359.5 -148.5q186 1 329 42v0v427v0h-316v168h509v-714v0q-214 -83 -536 -83z
M808 1522q-143 0 -224 70t-87 200h136q7 -79 48.5 -114t126.5 -35q74 0 120 39t55 110h136q-10 -132 -89.5 -201t-221.5 -69z" />
    <glyph glyph-name="gbreve" unicode="&#x11f;" horiz-adv-x="1171" 
d="M560 -259q148 0 209.5 72t61.5 245v131v0l-30 -42q-110 -133 -289 -133q-192 0 -301.5 134t-109.5 370q0 216 121.5 354.5t311.5 138.5q180 0 282 -133l15 -19v0v124v0h181v-925q0 -236 -109.5 -344.5t-346.5 -108.5q-207 0 -303.5 77t-96.5 242v0h189v0q0 -95 52 -139
t163 -44zM562 877q-128 0 -198.5 -94.5t-70.5 -266.5q0 -186 66.5 -277t202.5 -91q128 0 198.5 95.5t70.5 269.5t-70.5 269t-198.5 95zM576 1097q-145 0 -226 76.5t-85 217.5h136q7 -92 48 -132.5t127 -40.5q83 0 129 45.5t46 127.5h136q0 -144 -79.5 -219t-231.5 -75z" />
    <glyph glyph-name="glyph250" horiz-adv-x="0" 
d="M-251 -391l171 263h161l-116 -263h-216z" />
    <glyph glyph-name="Gcommaaccent" unicode="&#x122;" horiz-adv-x="1511" 
d="M794 -28q-310 0 -486.5 189.5t-176.5 522.5q0 353 180.5 554t496.5 201q239 0 380.5 -105t141.5 -283v0h-193v0q-8 101 -99 163t-230 62q-230 0 -357 -148t-127 -418q0 -281 124.5 -429.5t359.5 -148.5q186 1 329 42v0v427v0h-316v168h509v-714v0q-214 -83 -536 -83z
M543 -391l171 263h161l-116 -263h-216z" />
    <glyph glyph-name="glyph252" horiz-adv-x="0" 
d="M200 259l-117 -259h-216l173 259h160z" />
    <glyph glyph-name="gcommaaccent" unicode="&#x123;" horiz-adv-x="1171" 
d="M560 -259q148 0 209.5 72t61.5 245v131v0l-30 -42q-110 -133 -289 -133q-192 0 -301.5 134t-109.5 370q0 216 121.5 354.5t311.5 138.5q180 0 282 -133l15 -19v0v124v0h181v-925q0 -236 -109.5 -344.5t-346.5 -108.5q-207 0 -303.5 77t-96.5 242v0h189v0q0 -95 52 -139
t163 -44zM562 877q-128 0 -198.5 -94.5t-70.5 -266.5q0 -186 66.5 -277t202.5 -91q128 0 198.5 95.5t70.5 269.5t-70.5 269t-198.5 95zM734 1362l-117 -259h-216l173 259h160z" />
    <glyph glyph-name="Imacron" unicode="&#x12a;" horiz-adv-x="566" 
d="M190 0v1411v0h96h97v0v-1411v0h-96h-97v0zM-45 1675h662v-126h-662v126z" />
    <glyph glyph-name="imacron" unicode="&#x12b;" horiz-adv-x="491" 
d="M146 0v983v0h90h91v0v-983v0h-90h-91v0zM-103 1303h678v-138h-678v138z" />
    <glyph glyph-name="Iogonek" unicode="&#x12e;" horiz-adv-x="566" 
d="M193 0v1411v0h96h97v0v-1411v0h-96h-97v0zM165 -143q0 53 24 98.5t72 84.5h122q-36 -21 -60.5 -63t-24.5 -81q0 -54 37.5 -84.5t104.5 -30.5q4 0 36 1v-132h-37q-115 0 -195 60q-79 60 -79 147z" />
    <glyph glyph-name="iogonek" unicode="&#x12f;" horiz-adv-x="491" 
d="M154 0v983v0h90h91v0v-983v0h-90h-91v0zM145 1411h198v-185h-198v185zM146 -192q0 89 45.5 165t137.5 140q-28 -66 -47.5 -129.5t-19.5 -89.5q0 -40 26.5 -64t70.5 -24q16 0 31.5 1t27.5 2v-173h-82q-89 0 -140 46q-50 45 -50 126z" />
    <glyph glyph-name="Idotaccent" unicode="&#x130;" horiz-adv-x="566" 
d="M188 0v1411v0h96h97v0v-1411v0h-96h-97v0zM188 1760h192v-210h-192v210z" />
    <glyph glyph-name="Kcommaaccent" unicode="&#x136;" horiz-adv-x="1360" 
d="M399 0v0h-96h-97v0v1411v0h96h97v0v-613v0l577 613v0h123h124v0l-614 -629v0l668 -782v0h-127h-128v0l-623 754v0v-754zM459 -391l171 263h161l-116 -263h-216z" />
    <glyph glyph-name="kcommaaccent" unicode="&#x137;" horiz-adv-x="1095" 
d="M361 0v0h-90h-91v0v1411v0h90h91v0v-836v0l386 408v0h114h115v0l-423 -415v0l492 -568v0h-122h-122v0l-440 541v0v-541zM330 -391l171 263h161l-116 -263h-216z" />
    <glyph glyph-name="Lacute" unicode="&#x139;" horiz-adv-x="1095" 
d="M191 0v0v1411v0h96h97v0v-1251v0h666v0v-80v-80v0h-859zM179 1531l163 264h253l-238 -264h-178z" />
    <glyph glyph-name="lacute" unicode="&#x13a;" horiz-adv-x="491" 
d="M137 0v1411v0h90h91v0v-1411v0h-90h-91v0zM119 1531l163 264h253l-238 -264h-178z" />
    <glyph glyph-name="Lcommaaccent" unicode="&#x13b;" horiz-adv-x="1095" 
d="M179 0v0v1411v0h96h97v0v-1251v0h666v0v-80v-80v0h-859zM357 -391l171 263h161l-116 -263h-216z" />
    <glyph glyph-name="lcommaaccent" unicode="&#x13c;" horiz-adv-x="491" 
d="M139 0v1411v0h90h91v0v-1411v0h-90h-91v0zM-22 -391l171 263h161l-116 -263h-216z" />
    <glyph glyph-name="Lcaron" unicode="&#x13d;" horiz-adv-x="1095" 
d="M179 0v0v1411v0h96h97v0v-1251v0h666v0v-80v-80v0h-859zM492 1094l116 423h199l-201 -423h-114z" />
    <glyph glyph-name="lcaron" unicode="&#x13e;" horiz-adv-x="680" 
d="M150 0v1411v0h90h91v0v-1411v0h-90h-91v0zM450 1094l116 423h199l-201 -423h-114z" />
    <glyph glyph-name="Lslash" unicode="&#x141;" horiz-adv-x="1095" 
d="M177 0v0v1411v0h96h97v0v-1251v0h666v0v-80v-80v0h-859zM41 672l475 382v-167l-475 -382v167z" />
    <glyph glyph-name="lslash" unicode="&#x142;" horiz-adv-x="491" 
d="M150 0v1411v0h90h91v0v-1411v0h-90h-91v0zM33 710l414 294v-145l-414 -294v145z" />
    <glyph glyph-name="Nacute" unicode="&#x143;" horiz-adv-x="1473" 
d="M361 0v0h-96h-96v0v1411v0h125h126v0l689 -1183v0v0v1183v0h96h96v0v-1411h-129h-130l-681 1170v0v0v-1170zM627 1531l163 264h253l-238 -264h-178z" />
    <glyph glyph-name="nacute" unicode="&#x144;" horiz-adv-x="1171" 
d="M147 0v983v0h84h84v0v-136v0v0q14 21 31 39q112 125 302 125q194 0 285 -103t91 -322v-586v0h-90h-91v0v583q0 151 -57 219t-182 68q-145 0 -210.5 -74.5t-65.5 -239.5v0v-556v0h-90h-91v0zM459 1103l190 300h245l-263 -300h-172z" />
    <glyph glyph-name="Ncommaaccent" unicode="&#x145;" horiz-adv-x="1473" 
d="M361 0v0h-96h-96v0v1411v0h125h126v0l689 -1183v0v0v1183v0h96h96v0v-1411h-129h-130l-681 1170v0v0v-1170zM484 -391l171 263h161l-116 -263h-216z" />
    <glyph glyph-name="ncommaaccent" unicode="&#x146;" horiz-adv-x="1171" 
d="M147 0v983v0h84h84v0v-136v0v0q14 21 31 39q112 125 302 125q194 0 285 -103t91 -322v-586v0h-90h-91v0v583q0 151 -57 219t-182 68q-145 0 -210.5 -74.5t-65.5 -239.5v0v-556v0h-90h-91v0zM334 -391l171 263h161l-116 -263h-216z" />
    <glyph glyph-name="Ncaron" unicode="&#x147;" horiz-adv-x="1473" 
d="M361 0v0h-96h-96v0v1411v0h125h126v0l689 -1183v0v0v1183v0h96h96v0v-1411h-129h-130l-681 1170v0v0v-1170zM620 1531l-194 264h187l125 -156v0l125 156h181l-194 -264h-115h-115z" />
    <glyph glyph-name="ncaron" unicode="&#x148;" horiz-adv-x="1171" 
d="M147 0v983v0h84h84v0v-136v0v0q14 21 31 39q112 125 302 125q194 0 285 -103t91 -322v-586v0h-90h-91v0v583q0 151 -57 219t-182 68q-145 0 -210.5 -74.5t-65.5 -239.5v0v-556v0h-90h-91v0zM490 1104l-213 293h151l157 -181v0l157 181h151l-213 -293h-95h-95z" />
    <glyph glyph-name="Omacron" unicode="&#x14c;" horiz-adv-x="1548" 
d="M767 -28q-295 0 -463.5 197.5t-168.5 544.5q0 339 168.5 532t463.5 193q297 0 465 -193t168 -532q0 -347 -168 -544.5t-465 -197.5v0zM767 132q210 0 325 151.5t115 428.5q0 270 -115 418.5t-325 148.5q-209 0 -324 -148.5t-115 -418.5q0 -277 115 -428.5t324 -151.5v0z
M436 1675h662v-126h-662v126z" />
    <glyph glyph-name="omacron" unicode="&#x14d;" horiz-adv-x="1171" 
d="M580 -28q-222 0 -348.5 139.5t-126.5 385.5q0 241 126.5 377.5t348.5 136.5q223 0 349 -136.5t126 -377.5q0 -246 -126 -385.5t-349 -139.5v0zM580 108q134 0 208 101.5t74 286.5q0 181 -74 280t-208 99t-208 -99t-74 -280q0 -185 74 -286.5t208 -101.5v0zM241 1303h678
v-138h-678v138z" />
    <glyph glyph-name="glyph277" horiz-adv-x="0" 
d="M-276 -11l163 264h253l-227 -264h-189zM74 -11l163 264h253l-227 -264h-189z" />
    <glyph glyph-name="Ohungarumlaut" unicode="&#x150;" horiz-adv-x="1548" 
d="M767 -28q-295 0 -463.5 197.5t-168.5 544.5q0 339 168.5 532t463.5 193q297 0 465 -193t168 -532q0 -347 -168 -544.5t-465 -197.5v0zM767 132q210 0 325 151.5t115 428.5q0 270 -115 418.5t-325 148.5q-209 0 -324 -148.5t-115 -418.5q0 -277 115 -428.5t324 -151.5v0z
M491 1520l163 264h253l-227 -264h-189zM841 1520l163 264h253l-227 -264h-189z" />
    <glyph glyph-name="glyph279" horiz-adv-x="0" 
d="M-267 -3l190 300h245l-263 -300h-172zM99 -3l190 300h245l-263 -300h-172z" />
    <glyph glyph-name="ohungarumlaut" unicode="&#x151;" horiz-adv-x="1171" 
d="M580 -28q-222 0 -348.5 139.5t-126.5 385.5q0 241 126.5 377.5t348.5 136.5q223 0 349 -136.5t126 -377.5q0 -246 -126 -385.5t-349 -139.5v0zM580 108q134 0 208 101.5t74 286.5q0 181 -74 280t-208 99t-208 -99t-74 -280q0 -185 74 -286.5t208 -101.5v0zM313 1100
l190 300h245l-263 -300h-172zM679 1100l190 300h245l-263 -300h-172z" />
    <glyph glyph-name="OE" unicode="&#x152;" horiz-adv-x="2039" 
d="M842 1418q129 0 141 -3q7 -2 47.5 -3t92.5 -1h104v0h685v0v-80v-80v0h-685v0v-445v0h641v-80v-80v0h-641v0v-486v0h685v0v-80v-80v0h-685v0h-193q-28 0 -51.5 -1t-30.5 -3q-10 -3 -81 -3q-344 0 -540.5 192t-196.5 529q0 330 189 517q188 187 519 187zM871 1258
q-275 0 -409 -134.5t-135 -411.5q0 -267 142.5 -413t401.5 -146q89 1 163 16v0v1072v0q-74 18 -163 17z" />
    <glyph glyph-name="oe" unicode="&#x153;" horiz-adv-x="1850" 
d="M566 1011q217 0 340 -137q32 -35 55 -77v0q22 39 48 72q116 142 320 142q197 0 300 -123.5t103 -359.5v-66v0h-683v0q6 -168 61 -255q63 -99 198 -99q95 0 156 55t73 152v0h187v0q-21 -167 -122 -255t-273 -88q-204 0 -320 134q-30 36 -53 77v0q-21 -38 -51 -72
q-122 -139 -339 -139q-215 0 -338 139.5t-123 385.5q0 241 123 378q123 136 338 136zM576 875q-133 0 -205.5 -99t-72.5 -280q0 -185 72.5 -286.5t205.5 -101.5t206 101.5t73 286.5q0 181 -73 280t-206 99zM1546 597v0q-9 135 -54 198q-57 80 -194 80q-120 0 -186 -93
q-48 -70 -62 -185v0h496z" />
    <glyph glyph-name="Racute" unicode="&#x154;" horiz-adv-x="1322" 
d="M181 0v1411v0h96v0h466q214 0 336 -96.5t122 -265.5q0 -173 -131 -271q-62 -47 -148 -72v0q95 -11 139 -49q65 -54 88 -217q18 -128 34 -216l11 -62q13 -65 23.5 -101t23.5 -60h-102h-103q-19 57 -35.5 138t-38.5 222l-9 59q-18 117 -77 164.5t-184 47.5h-318v0v-632v0
h-96h-97v0zM374 792v0h336q142 0 220 57t78 161q0 127 -82.5 184t-266.5 57h-285v0v-459zM532 1531l163 264h253l-238 -264h-178z" />
    <glyph glyph-name="racute" unicode="&#x155;" horiz-adv-x="718" 
d="M148 0v983v0h90h91v0v-100v0v0q106 129 275 128l49 -2v-169l-37 2q-151 0 -219 -81.5t-68 -260.5v0v-500v0h-90h-91v0zM274 1103l190 300h245l-263 -300h-172z" />
    <glyph glyph-name="Rcommaaccent" unicode="&#x156;" horiz-adv-x="1322" 
d="M181 0v1411v0h96v0h466q214 0 336 -96.5t122 -265.5q0 -173 -131 -271q-62 -47 -148 -72v0q95 -11 139 -49q65 -54 88 -217q18 -128 34 -216l11 -62q13 -65 23.5 -101t23.5 -60h-102h-103q-19 57 -35.5 138t-38.5 222l-9 59q-18 117 -77 164.5t-184 47.5h-318v0v-632v0
h-96h-97v0zM374 792v0h336q142 0 220 57t78 161q0 127 -82.5 184t-266.5 57h-285v0v-459zM452 -391l171 263h161l-116 -263h-216z" />
    <glyph glyph-name="rcommaaccent" unicode="&#x157;" horiz-adv-x="718" 
d="M149 0v983v0h90h91v0v-100v0v0q106 129 275 128l49 -2v-169l-37 2q-151 0 -219 -81.5t-68 -260.5v0v-500v0h-90h-91v0zM-12 -391l171 263h161l-116 -263h-216z" />
    <glyph glyph-name="Rcaron" unicode="&#x158;" horiz-adv-x="1322" 
d="M181 0v1411v0h96v0h466q214 0 336 -96.5t122 -265.5q0 -173 -131 -271q-62 -47 -148 -72v0q95 -11 139 -49q65 -54 88 -217q18 -128 34 -216l11 -62q13 -65 23.5 -101t23.5 -60h-102h-103q-19 57 -35.5 138t-38.5 222l-9 59q-18 117 -77 164.5t-184 47.5h-318v0v-632v0
h-96h-97v0zM374 792v0h336q142 0 220 57t78 161q0 127 -82.5 184t-266.5 57h-285v0v-459zM525 1531l-194 264h187l125 -156v0l125 156h181l-194 -264h-115h-115z" />
    <glyph glyph-name="rcaron" unicode="&#x159;" horiz-adv-x="718" 
d="M147 0v983v0h90h91v0v-100v0v0q106 129 275 128l49 -2v-169l-37 2q-151 0 -219 -81.5t-68 -260.5v0v-500v0h-90h-91v0zM304 1104l-213 293h151l157 -181v0l157 181h151l-213 -293h-95h-95z" />
    <glyph glyph-name="Sacute" unicode="&#x15a;" horiz-adv-x="1322" 
d="M976 1058v0q-6 97 -87 157t-207 60q-159 0 -246.5 -60t-87.5 -169q0 -72 51 -119q50 -47 153 -72l284 -68q198 -48 286 -135q87 -87 87 -236q0 -208 -142.5 -326t-393.5 -118q-247 0 -382 109.5t-155 327.5v0h194v0q5 -141 89 -209t254 -68q164 0 253.5 70t89.5 198
q0 74 -55 124q-54 50 -167 77l-284 68q-190 45 -274 131q-84 85 -84 232q0 191 141 299t389 108q227 0 352.5 -97.5t137.5 -283.5v0h-196zM574 1531l163 264h253l-238 -264h-178z" />
    <glyph glyph-name="sacute" unicode="&#x15b;" horiz-adv-x="1020" 
d="M712 718v0q0 73 -52.5 115t-145.5 42q-96 0 -149 -35t-53 -98q0 -46 29 -76q28 -30 88 -46l200 -54q153 -42 220 -107q66 -64 66 -170q0 -148 -108.5 -232.5t-299.5 -84.5q-200 0 -304.5 82.5t-104.5 240.5v0h187v0q0 -88 59 -137.5t163 -49.5q109 0 169 43t60 122
q0 46 -37 78t-114 53l-200 54q-136 37 -196 99q-59 62 -59 168q0 134 102 210t282 76t282.5 -78t102.5 -215v0h-187zM388 1103l190 300h245l-263 -300h-172z" />
    <glyph glyph-name="Scedilla" unicode="&#x15e;" horiz-adv-x="1322" 
d="M976 1058v0q-6 97 -87 157t-207 60q-159 0 -246.5 -60t-87.5 -169q0 -72 51 -119q50 -47 153 -72l284 -68q198 -48 286 -135q87 -87 87 -236q0 -208 -142.5 -326t-393.5 -118q-247 0 -382 109.5t-155 327.5v0h194v0q5 -141 89 -209t254 -68q164 0 253.5 70t89.5 198
q0 74 -55 124q-54 50 -167 77l-284 68q-190 45 -274 131q-84 85 -84 232q0 191 141 299t389 108q227 0 352.5 -97.5t137.5 -283.5v0h-196zM422 -391l171 263h161l-116 -263h-216z" />
    <glyph glyph-name="scedilla" unicode="&#x15f;" horiz-adv-x="1020" 
d="M712 718v0q0 73 -52.5 115t-145.5 42q-96 0 -149 -35t-53 -98q0 -46 29 -76q28 -30 88 -46l200 -54q153 -42 220 -107q66 -64 66 -170q0 -148 -108.5 -232.5t-299.5 -84.5q-200 0 -304.5 82.5t-104.5 240.5v0h187v0q0 -88 59 -137.5t163 -49.5q109 0 169 43t60 122
q0 46 -37 78t-114 53l-200 54q-136 37 -196 99q-59 62 -59 168q0 134 102 210t282 76t282.5 -78t102.5 -215v0h-187zM255 -391l172 263h161l-117 -263h-216z" />
    <glyph glyph-name="Scaron" unicode="&#x160;" horiz-adv-x="1322" 
d="M976 1058v0q-6 97 -87 157t-207 60q-159 0 -246.5 -60t-87.5 -169q0 -72 51 -119q50 -47 153 -72l284 -68q198 -48 286 -135q87 -87 87 -236q0 -208 -142.5 -326t-393.5 -118q-247 0 -382 109.5t-155 327.5v0h194v0q5 -141 89 -209t254 -68q164 0 253.5 70t89.5 198
q0 74 -55 124q-54 50 -167 77l-284 68q-190 45 -274 131q-84 85 -84 232q0 191 141 299t389 108q227 0 352.5 -97.5t137.5 -283.5v0h-196zM567 1531l-194 264h187l125 -156v0l125 156h181l-194 -264h-115h-115z" />
    <glyph glyph-name="scaron" unicode="&#x161;" horiz-adv-x="1020" 
d="M712 718v0q0 73 -52.5 115t-145.5 42q-96 0 -149 -35t-53 -98q0 -46 29 -76q28 -30 88 -46l200 -54q153 -42 220 -107q66 -64 66 -170q0 -148 -108.5 -232.5t-299.5 -84.5q-200 0 -304.5 82.5t-104.5 240.5v0h187v0q0 -88 59 -137.5t163 -49.5q109 0 169 43t60 122
q0 46 -37 78t-114 53l-200 54q-136 37 -196 99q-59 62 -59 168q0 134 102 210t282 76t282.5 -78t102.5 -215v0h-187zM419 1104l-213 293h151l157 -181v0l157 181h151l-213 -293h-95h-95z" />
    <glyph glyph-name="glyph295" horiz-adv-x="0" 
d="M-251 -391l171 263h161l-116 -263h-216z" />
    <glyph glyph-name="Tcommaaccent" unicode="&#x162;" 
d="M545 0v1251v0h-473v0v80v80v0h1139v0v-80v-80v0h-473v0v-1251v0h-96h-97v0zM436 -391l171 263h161l-116 -263h-216z" />
    <glyph glyph-name="glyph297" horiz-adv-x="0" 
d="M-252 -391l172 263h161l-117 -263h-216z" />
    <glyph glyph-name="tcommaaccent" unicode="&#x163;" horiz-adv-x="755" 
d="M671 -14q-77 -14 -178 -14q-102 0 -173 56t-71 137v687v0h-204v131h204v0v177l181 75v-252v0h241v-131h-241v0v-645q0 -52 26 -75.5t83 -23.5q72 1 132 13v-135zM231 -391l172 263h161l-117 -263h-216z" />
    <glyph glyph-name="Tcaron" unicode="&#x164;" 
d="M545 0v1251v0h-473v0v80v80v0h1139v0v-80v-80v0h-473v0v-1251v0h-96h-97v0zM526 1531l-194 264h187l125 -156v0l125 156h181l-194 -264h-115h-115z" />
    <glyph glyph-name="tcaron" unicode="&#x165;" horiz-adv-x="831" 
d="M671 -14q-77 -14 -178 -14q-102 0 -173 56t-71 137v687v0h-204v131h204v0v177l181 75v-252v0h241v-131h-241v0v-645q0 -52 26 -75.5t83 -23.5q72 1 132 13v-135zM549 1109l116 423h199l-201 -423h-114z" />
    <glyph glyph-name="Umacron" unicode="&#x16a;" horiz-adv-x="1473" 
d="M1296 532q0 -262 -148.5 -411t-411.5 -149q-262 0 -411 149t-149 411v879v0h96h97v0v-837q0 -211 96.5 -326.5t271.5 -115.5t271 115.5t96 326.5v837v0h96h96v0v-879zM405 1675h662v-126h-662v126z" />
    <glyph glyph-name="umacron" unicode="&#x16b;" horiz-adv-x="1171" 
d="M320 983v-589q0 -151 57 -219t182 -68q152 0 217.5 76t57.5 243v0v557v0h90h91v0v-983v0h-84h-84v0v128v0v0l-20 -26q-114 -131 -302 -131q-199 0 -292.5 105.5t-93.5 330.5v576v0h90h91v0zM238 1303h678v-138h-678v138z" />
    <glyph glyph-name="Uring" unicode="&#x16e;" horiz-adv-x="1473" 
d="M1296 532q0 -262 -148.5 -411t-411.5 -149q-262 0 -411 149t-149 411v879v0h96h97v0v-837q0 -211 96.5 -326.5t271.5 -115.5t271 115.5t96 326.5v837v0h96h96v0v-879zM736 1433q-108 0 -182.5 76t-74.5 186t74.5 186.5t182.5 76.5t183 -76.5t75 -186.5t-75 -186t-183 -76
v0zM736 1565q53 0 89 37.5t36 92.5t-36 93t-89 38q-52 0 -88 -38t-36 -93t36 -92.5t88 -37.5v0z" />
    <glyph glyph-name="uring" unicode="&#x16f;" horiz-adv-x="1171" 
d="M320 983v-589q0 -151 57 -219t182 -68q152 0 217.5 76t57.5 243v0v557v0h90h91v0v-983v0h-84h-84v0v128v0v0l-20 -26q-114 -131 -302 -131q-199 0 -292.5 105.5t-93.5 330.5v576v0h90h91v0zM577 1096q-99 0 -167 71t-68 173q0 103 68 174t167 71t167.5 -71t68.5 -174
q0 -102 -68.5 -173t-167.5 -71v0zM577 1229q50 0 84.5 32t34.5 79t-34.5 79.5t-84.5 32.5t-84 -32.5t-34 -79.5t34 -79t84 -32v0z" />
    <glyph glyph-name="Uhungarumlaut" unicode="&#x170;" horiz-adv-x="1473" 
d="M1296 532q0 -262 -148.5 -411t-411.5 -149q-262 0 -411 149t-149 411v879v0h96h97v0v-837q0 -211 96.5 -326.5t271.5 -115.5t271 115.5t96 326.5v837v0h96h96v0v-879zM460 1520l163 264h253l-227 -264h-189zM810 1520l163 264h253l-227 -264h-189z" />
    <glyph glyph-name="uhungarumlaut" unicode="&#x171;" horiz-adv-x="1171" 
d="M320 983v-589q0 -151 57 -219t182 -68q152 0 217.5 76t57.5 243v0v557v0h90h91v0v-983v0h-84h-84v0v128v0v0l-20 -26q-114 -131 -302 -131q-199 0 -292.5 105.5t-93.5 330.5v576v0h90h91v0zM310 1100l190 300h245l-263 -300h-172zM676 1100l190 300h245l-263 -300h-172z
" />
    <glyph glyph-name="Uogonek" unicode="&#x172;" horiz-adv-x="1473" 
d="M1296 532q0 -262 -148.5 -411t-411.5 -149q-262 0 -411 149t-149 411v879v0h96h97v0v-837q0 -211 96.5 -326.5t271.5 -115.5t271 115.5t96 326.5v837v0h96h96v0v-879zM822 -143q0 53 24 98.5t72 84.5h122q-36 -21 -60.5 -63t-24.5 -81q0 -54 37.5 -84.5t104.5 -30.5
q4 0 36 1v-132h-37q-115 0 -195 60q-79 60 -79 147z" />
    <glyph glyph-name="uogonek" unicode="&#x173;" horiz-adv-x="1171" 
d="M320 983v-589q0 -151 57 -219t182 -68q152 0 217.5 76t57.5 243v0v557v0h90h91v0v-983v0h-84h-84v0v128v0v0l-20 -26q-114 -131 -302 -131q-199 0 -292.5 105.5t-93.5 330.5v576v0h90h91v0zM786 -192q0 89 45.5 165t137.5 140q-28 -66 -47.5 -129.5t-19.5 -89.5
q0 -40 26.5 -64t70.5 -24q16 0 31.5 1t27.5 2v-173h-82q-89 0 -140 46q-50 45 -50 126z" />
    <glyph glyph-name="Ydieresis" unicode="&#x178;" horiz-adv-x="1397" 
d="M594 574v0l-541 837v0h118h118v0l415 -689v0l418 689v0h102h102v0l-539 -836v0v-575h-96h-97v574zM399 1767h192v-209h-192v209zM766 1767h192v-209h-192v209z" />
    <glyph glyph-name="Zacute" unicode="&#x179;" horiz-adv-x="1246" 
d="M101 181l787 1039l24 31v0h-788v0v80v80v0h1003v-95v-96l-794 -1039l-16 -21v0h829v0v-80v-80v0h-1045v90v91zM517 1531l163 264h253l-238 -264h-178z" />
    <glyph glyph-name="zacute" unicode="&#x17a;" horiz-adv-x="982" 
d="M98 155l548 673l17 20v0h-539v0v67v68v0h742v-77v-78l-548 -673l-17 -20v0h579v0v-67v-68v0h-782v77v78zM369 1103l190 300h245l-263 -300h-172z" />
    <glyph glyph-name="Zdotaccent" unicode="&#x17b;" horiz-adv-x="1246" 
d="M101 181l787 1039l24 31v0h-788v0v80v80v0h1003v-95v-96l-794 -1039l-16 -21v0h829v0v-80v-80v0h-1045v90v91zM529 1760h192v-210h-192v210z" />
    <glyph glyph-name="zdotaccent" unicode="&#x17c;" horiz-adv-x="982" 
d="M98 155l548 673l17 20v0h-539v0v67v68v0h742v-77v-78l-548 -673l-17 -20v0h579v0v-67v-68v0h-782v77v78zM399 1375h192v-210h-192v210z" />
    <glyph glyph-name="Zcaron" unicode="&#x17d;" horiz-adv-x="1246" 
d="M101 181l787 1039l24 31v0h-788v0v80v80v0h1003v-95v-96l-794 -1039l-16 -21v0h829v0v-80v-80v0h-1045v90v91zM510 1531l-194 264h187l125 -156v0l125 156h181l-194 -264h-115h-115z" />
    <glyph glyph-name="zcaron" unicode="&#x17e;" horiz-adv-x="982" 
d="M98 155l548 673l17 20v0h-539v0v67v68v0h742v-77v-78l-548 -673l-17 -20v0h579v0v-67v-68v0h-782v77v78zM400 1104l-213 293h151l157 -181v0l157 181h151l-213 -293h-95h-95z" />
    <glyph glyph-name="florin" unicode="&#x192;" 
d="M759 852v0l-247 -852v0h-90h-91v0l247 852v0h-192l38 131h192v0l33 114q54 184 135 256t235 72q74 0 134 -19l-36 -125q-31 8 -70 8q-89 0 -137.5 -43t-79.5 -149l-33 -114v0h229l-38 -131h-229z" />
    <glyph glyph-name="circumflex" unicode="&#x2c6;" 
d="M749 1396l213 -293h-151l-157 181v0l-157 -181h-151l213 293h95h95z" />
    <glyph glyph-name="caron" unicode="&#x2c7;" 
d="M537 1104l-213 293h151l157 -181v0l157 181h151l-213 -293h-95h-95z" />
    <glyph glyph-name="uni02C9" unicode="&#x2c9;" 
d="M306 1303h678v-138h-678v138z" />
    <glyph glyph-name="breve" unicode="&#x2d8;" 
d="M632 1097q-145 0 -226 76.5t-85 217.5h136q7 -92 48 -132.5t127 -40.5q83 0 129 45.5t46 127.5h136q0 -144 -79.5 -219t-231.5 -75z" />
    <glyph glyph-name="dotaccent" unicode="&#x2d9;" 
d="M567 1375h192v-210h-192v210z" />
    <glyph glyph-name="ring" unicode="&#x2da;" 
d="M647 1096q-99 0 -167 71t-68 173q0 103 68 174t167 71t167.5 -71t68.5 -174q0 -102 -68.5 -173t-167.5 -71v0zM647 1229q50 0 84.5 32t34.5 79t-34.5 79.5t-84.5 32.5t-84 -32.5t-34 -79.5t34 -79t84 -32v0z" />
    <glyph glyph-name="ogonek" unicode="&#x2db;" 
d="M819 -192q0 89 45.5 165t137.5 140q-28 -66 -47.5 -129.5t-19.5 -89.5q0 -40 26.5 -64t70.5 -24q16 0 31.5 1t27.5 2v-173h-82q-89 0 -140 46q-50 45 -50 126z" />
    <glyph glyph-name="tilde" unicode="&#x2dc;" 
d="M322 1177q18 128 62 187t120 59q38 0 72 -11.5t116 -53.5q43 -22 68.5 -30.5t47.5 -8.5q31 0 46.5 21.5t26.5 77.5h117q-8 -128 -51.5 -187t-130.5 -59q-45 0 -78.5 11t-109.5 49q-49 25 -74 35t-40 10q-32 0 -48 -21.5t-27 -78.5h-117z" />
    <glyph glyph-name="hungarumlaut" unicode="&#x2dd;" 
d="M353 1100l190 300h245l-263 -300h-172zM719 1100l190 300h245l-263 -300h-172z" />
    <glyph glyph-name="afii10022" unicode="&#x415;" horiz-adv-x="1171" 
d="M184 0v0v1411v0h860v0v-80v-80v0h-667v0v-445v0h641v-80v-80v0h-641v0v-486v0h685v0v-80v-80v0h-878z" />
    <glyph glyph-name="afii10023" unicode="&#x401;" horiz-adv-x="1171" 
d="M184 0v0v1411v0h860v0v-80v-80v0h-667v0v-445v0h641v-80v-80v0h-641v0v-486v0h685v0v-80v-80v0h-878zM323 1767h192v-209h-192v209zM690 1767h192v-209h-192v209z" />
    <glyph glyph-name="afii10051" unicode="&#x402;" horiz-adv-x="1548" 
d="M1059 720q-108 0 -216 -29t-129 -63v0v-628v0h-96h-97v0v1251v0h-473v0v80v80v0h1139v0v-80v-80v0h-473v0v-453v0v0l56 21q153 54 285 54q220 0 323.5 -98t103.5 -306q0 -233 -102.5 -365t-282.5 -132q-106 0 -106 14v0v152v0q0 -6 106 -6q92 0 142 88q46 80 50 224
q4 131 -56.5 203.5t-173.5 72.5z" />
    <glyph glyph-name="afii10020" unicode="&#x413;" horiz-adv-x="1080" 
d="M384 0v0h-96h-97v0v1411v0h854v-80v-80v0h-661v0v-1251z" />
    <glyph glyph-name="afii10052" unicode="&#x403;" horiz-adv-x="1080" 
d="M384 0v0h-96h-97v0v1411v0h854v-80v-80v0h-661v0v-1251zM492 1531l190 300h245l-263 -300h-172z" />
    <glyph glyph-name="afii10053" unicode="&#x404;" horiz-adv-x="1435" 
d="M1311 374v0q-5 -180 -154 -291t-385 -111q-295 0 -463 193.5t-168 533.5q0 346 168 543t463 197q247 0 393 -109t146 -293v0h-198v0q0 107 -88.5 173t-232.5 66q-216 0 -335 -145q-98 -120 -115 -325v0h483v-160h-483v0q13 -226 114 -359q116 -154 327 -154q140 0 228 64
t102 177v0h198z" />
    <glyph glyph-name="afii10054" unicode="&#x405;" horiz-adv-x="1322" 
d="M976 1058v0q-6 97 -87 157t-207 60q-159 0 -246.5 -60t-87.5 -169q0 -72 51 -119q50 -47 153 -72l284 -68q198 -48 286 -135q87 -87 87 -236q0 -208 -142.5 -326t-393.5 -118q-247 0 -382 109.5t-155 327.5v0h194v0q5 -141 89 -209t254 -68q164 0 253.5 70t89.5 198
q0 74 -55 124q-54 50 -167 77l-284 68q-190 45 -274 131q-84 85 -84 232q0 191 141 299t389 108q227 0 352.5 -97.5t137.5 -283.5v0h-196z" />
    <glyph glyph-name="afii10055" unicode="&#x406;" horiz-adv-x="566" 
d="M188 0v1411v0h96h97v0v-1411v0h-96h-97v0z" />
    <glyph glyph-name="afii10056" unicode="&#x407;" horiz-adv-x="566" 
d="M199 0v1411v0h96h97v0v-1411v0h-96h-97v0zM5 1767h192v-209h-192v209zM372 1767h192v-209h-192v209z" />
    <glyph glyph-name="afii10057" unicode="&#x408;" horiz-adv-x="1133" 
d="M763 1411v0h96h97v0v-974q0 -232 -115 -348.5t-344 -116.5q-197 0 -307.5 103t-116.5 292v0h193v0q15 -123 71 -178t166 -55q129 0 194.5 71t65.5 209v0v997z" />
    <glyph glyph-name="afii10058" unicode="&#x409;" horiz-adv-x="2077" 
d="M972 1251v0h-473v0v-711q1 -296 -75.5 -418t-262.5 -122h-95v163h54q109 0 147.5 78t38.5 299v0v871v0h859v0v-569v0h223q316 0 463 -100t147 -316q0 -233 -133.5 -329.5t-456.5 -96.5h-340h-96v0v1251zM1165 682v-522v0h243q209 0 303 62.5t94 201.5q0 136 -98.5 197
t-318.5 61h-223v0z" />
    <glyph glyph-name="afii10059" unicode="&#x40a;" horiz-adv-x="2115" 
d="M179 0v1411v0h96h97v0v-605v0h637v0v605v0h96h97v0v-593v0h223q316 0 463 -97.5t147 -307.5q0 -226 -133.5 -319.5t-456.5 -93.5h-340h-96v0v646v0h-637v0v-646v0h-96h-97v0zM1202 658v-498v0h243q209 0 303 59.5t94 191.5q0 130 -98.5 188.5t-318.5 58.5h-223v0z" />
    <glyph glyph-name="afii10060" unicode="&#x40b;" horiz-adv-x="1548" 
d="M1063 720q-122 0 -221 -26.5t-123 -65.5v0v-628v0h-96h-97v0v1251v0h-473v0v80v80v0h1139v0v-80v-80v0h-473v0v-453v0v0l56 21q152 54 284 54q219 0 322.5 -93.5t103.5 -291.5v-488v0h-96h-97v0v445q0 144 -54.5 209.5t-174.5 65.5z" />
    <glyph glyph-name="afii10028" unicode="&#x41a;" horiz-adv-x="1322" 
d="M190 0v1411v0h96h97v0v-558v0h117q162 0 243.5 54t96.5 170l1 9q21 163 89.5 244t186.5 81h83v-175h-41q-58 0 -91 -37.5t-43 -112.5l-10 -83q-19 -154 -153 -226l-35 -16v0l31 -15q153 -79 206 -251l101 -333q20 -67 35 -103.5t31 -57.5h-102h-103q-9 23 -21 59.5
t-32 101.5l-76 250q-43 139 -146 203.5t-284 64.5h-84v0v-680v0h-96h-97v0z" />
    <glyph glyph-name="afii10061" unicode="&#x40c;" horiz-adv-x="1322" 
d="M190 0v1411v0h96h97v0v-558v0h117q162 0 243.5 54t96.5 170l1 9q21 163 89.5 244t186.5 81h83v-175h-41q-58 0 -91 -37.5t-43 -112.5l-10 -83q-19 -154 -153 -226l-35 -16v0l31 -15q153 -79 206 -251l101 -333q20 -67 35 -103.5t31 -57.5h-102h-103q-9 23 -21 59.5
t-32 101.5l-76 250q-43 139 -146 203.5t-284 64.5h-84v0v-680v0h-96h-97v0zM577 1531l190 300h245l-263 -300h-172z" />
    <glyph glyph-name="afii10037" unicode="&#x423;" horiz-adv-x="1322" 
d="M444 0v0h-113h-114v0l353 577v0l-536 834v0h115h116v0l402 -673v0v0l407 673v0h113h114v0z" />
    <glyph glyph-name="glyph342" horiz-adv-x="0" 
d="M0 -9q-143 0 -224 70t-87 200h136q7 -79 48.5 -114t126.5 -35q74 0 120 39t55 110h136q-10 -132 -89.5 -201t-221.5 -69z" />
    <glyph glyph-name="afii10062" unicode="&#x40e;" horiz-adv-x="1322" 
d="M444 0v0h-113h-114v0l353 577v0l-536 834v0h115h116v0l402 -673v0v0l407 673v0h113h114v0zM667 1522q-143 0 -224 70t-87 200h136q7 -79 48.5 -114t126.5 -35q74 0 120 39t55 110h136q-10 -132 -89.5 -201t-221.5 -69z" />
    <glyph glyph-name="afii10145" unicode="&#x40f;" horiz-adv-x="1473" 
d="M179 0v0v1411v0h96h97v0v-1251v0h727v0v1251v0h96h97v0v-1411v0h-461v-320h-193v320h-459z" />
    <glyph glyph-name="afii10017" unicode="&#x410;" horiz-adv-x="1511" 
d="M67 0l579 1411h106h106l579 -1411v0h-105h-105v0l-142 368v0h-664v0l-140 -368v0h-107h-107v0zM753 1229l-270 -701v0h541v0l-271 701v0v0z" />
    <glyph glyph-name="afii10018" unicode="&#x411;" 
d="M179 0v1411v0h862v0v-80v-80v0h-669v0v-409v0h223q316 0 463 -100t147 -316q0 -233 -133.5 -329.5t-456.5 -96.5h-340h-96zM372 682v-522v0h243q209 0 303 62.5t94 201.5q0 136 -98.5 197t-318.5 61h-223v0z" />
    <glyph glyph-name="afii10019" unicode="&#x412;" 
d="M179 0v1411v0h96v0h361q257 0 387 -87t130 -259q0 -176 -130 -265q-50 -34 -119 -56v0q96 -22 164 -71q137 -97 137 -291q0 -190 -124.5 -286t-372.5 -96h-433v0h-96v0zM372 1251v-436v0h264q164 0 244 52t80 159q0 114 -80 169.5t-244 55.5h-264v0zM372 651v-491v0h319
q169 0 245 58.5t76 189.5q0 118 -90.5 180.5t-261.5 62.5h-288v0z" />
    <glyph glyph-name="afii10021" unicode="&#x414;" horiz-adv-x="1365" 
d="M370 1411v0h814v0v-1251h91v-480h-193v320h-840v-320h-193v480h108q60 117 110 312q103 409 103 939zM991 1251v0h-432v0q-11 -432 -100 -780q-48 -193 -109 -311v0h641v0v1091z" />
    <glyph glyph-name="afii10024" unicode="&#x416;" horiz-adv-x="1851" 
d="M1001 680v-680h-96h-97v0v680v0h-76q-152 0 -241 -64.5t-129 -203.5l-72 -250q-19 -67 -30.5 -103.5t-19.5 -57.5h-102h-103q15 22 29 58t33 103l96 333q49 172 188 251l25 13v0l-37 19q-122 71 -139 225l-9 83q-8 75 -37.5 112.5t-80.5 37.5h-38v175h76q112 0 177.5 -81
t86.5 -244l1 -9q12 -116 83.5 -170t212.5 -54h106v0v558v0h96h97v0v-558v0h105q141 0 212.5 54t83.5 170l1 9q21 163 87 244t178 81h76v-175h-38q-52 0 -81.5 -37.5t-37.5 -112.5l-9 -83q-17 -154 -139 -226l-36 -18v0l25 -13q138 -79 187 -251l95 -333q19 -65 33 -101
t30 -60h-102h-103q-8 21 -19.5 57.5t-30.5 103.5l-72 250q-40 139 -129 203.5t-241 64.5h-75v0z" />
    <glyph glyph-name="afii10025" unicode="&#x417;" horiz-adv-x="1171" 
d="M583 -28q-212 0 -346 111t-139 291v0h193v0q14 -113 91.5 -177.5t200.5 -64.5q139 0 215.5 69t76.5 194q0 123 -76.5 190.5t-215.5 67.5h-145v160h160q132 0 204.5 61.5t72.5 173.5q0 110 -72.5 170.5t-204.5 60.5q-124 0 -200.5 -67t-76.5 -175v0h-193v0
q0 184 127.5 293t342.5 109q220 0 345 -99t125 -274q0 -178 -125 -280q-42 -34 -94 -56v0q51 -23 90 -56q129 -106 129 -293q0 -191 -129 -300t-356 -109v0z" />
    <glyph glyph-name="afii10026" unicode="&#x418;" horiz-adv-x="1473" 
d="M430 0h-125h-126v1411v0h96h97v0v-1200v0v0l669 1200h125h126v-1411v0h-96h-97v0v1200v0v0z" />
    <glyph glyph-name="afii10027" unicode="&#x419;" horiz-adv-x="1473" 
d="M430 0h-125h-126v1411v0h96h97v0v-1200v0v0l669 1200h125h126v-1411v0h-96h-97v0v1200v0v0zM735 1522q-143 0 -224 70t-87 200h136q7 -79 48.5 -114t126.5 -35q74 0 120 39t55 110h136q-10 -132 -89.5 -201t-221.5 -69z" />
    <glyph glyph-name="afii10029" unicode="&#x41b;" horiz-adv-x="1435" 
d="M1087 1251v0h-588v0v-711q1 -296 -75.5 -418t-262.5 -122h-95v163h54q109 0 147.5 78t38.5 299v0v871v0h974v0v-1411h-96h-97v0v1251z" />
    <glyph glyph-name="afii10030" unicode="&#x41c;" horiz-adv-x="1851" 
d="M366 0v0h-96h-97v0v1411v0h156h157v0l443 -1181v0v0l429 1181v0h156h157v0v-1411v0h-96h-97v0v1265v0l-453 -1265h-97h-97l-465 1263v0v-1263z" />
    <glyph glyph-name="afii10031" unicode="&#x41d;" horiz-adv-x="1473" 
d="M179 0v1411v0h96h97v0v-603v0h727v0v603v0h96h97v0v-1411v0h-96h-97v0v644v0h-727v0v-644v0h-96h-97v0z" />
    <glyph glyph-name="afii10032" unicode="&#x41e;" horiz-adv-x="1548" 
d="M767 -28q-295 0 -463.5 197.5t-168.5 544.5q0 339 168.5 532t463.5 193q297 0 465 -193t168 -532q0 -347 -168 -544.5t-465 -197.5v0zM767 132q210 0 325 151.5t115 428.5q0 270 -115 418.5t-325 148.5q-209 0 -324 -148.5t-115 -418.5q0 -277 115 -428.5t324 -151.5v0z
" />
    <glyph glyph-name="afii10033" unicode="&#x41f;" horiz-adv-x="1473" 
d="M372 0h-96h-97v0v1411v0h1113v0v-1411v0h-96h-97v0v1251v0h-727v0v-1251v0z" />
    <glyph glyph-name="afii10034" unicode="&#x420;" horiz-adv-x="1208" 
d="M174 0v1411v0h96v0h417q223 0 350 -107t127 -295q0 -192 -127 -301t-350 -109h-320v0v-599v0h-96h-97v0zM367 759v0h320q135 0 209.5 65t74.5 183q0 116 -74.5 180t-209.5 64h-320v0v-492z" />
    <glyph glyph-name="afii10035" unicode="&#x421;" horiz-adv-x="1435" 
d="M1311 374v0q-5 -180 -154 -291t-385 -111q-295 0 -463 193.5t-168 533.5q0 346 168 543t463 197q247 0 393 -109t146 -293v0h-198v0q0 107 -88.5 173t-232.5 66q-216 0 -334.5 -145t-118.5 -409q0 -281 116.5 -435t327.5 -154q140 0 228 64t102 177v0h198z" />
    <glyph glyph-name="afii10036" unicode="&#x422;" 
d="M545 0v1251v0h-473v0v80v80v0h1139v0v-80v-80v0h-473v0v-1251v0h-96h-97v0z" />
    <glyph glyph-name="afii10038" unicode="&#x424;" horiz-adv-x="1699" 
d="M940 1411v0v-198v0q275 -9 436 -133q175 -134 175 -369q0 -241 -176 -378q-162 -125 -435 -136v0v-197v0h-96h-97v0v198v0q-273 10 -436 136q-176 136 -176 377q0 235 176 369q162 123 436 135v0v196v0h96h97zM1358 709q0 164 -122 255q-107 80 -296 88v0v-693v0
q189 8 296 90q122 92 122 260v0zM747 1052v0q-188 -8 -297 -89q-122 -90 -122 -254q0 -168 122 -260q110 -81 297 -92v0v695z" />
    <glyph glyph-name="afii10039" unicode="&#x425;" horiz-adv-x="1473" 
d="M82 0l533 739v0l-486 672v0h120h121v0l375 -548v0v0l373 548v0h115h115v0l-492 -676v0l541 -735v0h-123h-124v0l-421 601v0v0l-411 -601v0h-118h-118v0z" />
    <glyph glyph-name="afii10040" unicode="&#x426;" horiz-adv-x="1473" 
d="M179 0v0v1411v0h96h97v0v-1251v0h727v0v1251v0h96h97v0v-1251h91v-480h-193v320h-1011z" />
    <glyph glyph-name="afii10041" unicode="&#x427;" 
d="M579 690q114 0 207.5 26.5t117.5 65.5v0v628v0h96h97v0v-1411v0h-96h-97v0v617v0v0q-31 -14 -67 -25q-164 -54 -308 -54q-234 0 -344.5 125t-111.5 390v358v0h96h97v0v-326q0 -207 74.5 -300.5t238.5 -93.5z" />
    <glyph glyph-name="afii10042" unicode="&#x428;" horiz-adv-x="2186" 
d="M179 0v0v1411v0h96h97v0v-1251v0h624v0v1251v0h96h97v0v-1251v0h623v0v1251v0h96h97v0v-1411v0h-1826z" />
    <glyph glyph-name="afii10043" unicode="&#x429;" horiz-adv-x="2186" 
d="M179 0v0v1411v0h96h97v0v-1251v0h624v0v1251v0h96h97v0v-1251v0h623v0v1251v0h96h97v0v-1251h91v-480h-193v320h-1724z" />
    <glyph glyph-name="afii10044" unicode="&#x42a;" horiz-adv-x="1472" 
d="M23 1411h537v0v-569v0h223q316 0 463 -100t147 -316q0 -233 -133.5 -329.5t-456.5 -96.5h-340v0h-96v0v1251v0h-344v0v80v80v0zM560 682v-522v0h243q209 0 303 62.5t94 201.5q0 136 -98.5 197t-318.5 61h-223v0z" />
    <glyph glyph-name="glyph368" horiz-adv-x="0" 
d="M-513 0v1411v0h96h97v0v-569v0h223q316 0 463 -100t147 -316q0 -233 -133.5 -329.5t-456.5 -96.5h-340v0h-96v0zM-320 682v-522v0h243q209 0 303 62.5t94 201.5q0 136 -98.5 197t-318.5 61h-223v0z" />
    <glyph glyph-name="glyph369" horiz-adv-x="0" 
d="M-96 0v1411v0h96h97v0v-1411v0h-96h-97v0z" />
    <glyph glyph-name="afii10045" unicode="&#x42b;" horiz-adv-x="1744" 
d="M179 0v1411v0h96h97v0v-569v0h223q316 0 463 -100t147 -316q0 -233 -133.5 -329.5t-456.5 -96.5h-340v0h-96v0zM372 682v-522v0h243q209 0 303 62.5t94 201.5q0 136 -98.5 197t-318.5 61h-223v0zM1367 0v1411v0h96h97v0v-1411v0h-96h-97v0z" />
    <glyph glyph-name="afii10046" unicode="&#x42c;" 
d="M179 0v1411v0h96h97v0v-569v0h223q316 0 463 -100t147 -316q0 -233 -133.5 -329.5t-456.5 -96.5h-340v0h-96v0zM372 682v-522v0h243q209 0 303 62.5t94 201.5q0 136 -98.5 197t-318.5 61h-223v0z" />
    <glyph glyph-name="afii10047" unicode="&#x42d;" horiz-adv-x="1435" 
d="M141 374h198v0q14 -113 102 -177t228 -64q211 0 327 154q101 133 114 359v0h-483v160h483v0q-17 205 -115 325q-119 145 -335 145q-135 0 -223.5 -66t-97.5 -173v0h-198v0q14 184 160 293t379 109q295 0 463 -197t168 -543q0 -340 -168 -533.5t-463 -193.5
q-236 0 -385 111t-154 291v0z" />
    <glyph glyph-name="afii10048" unicode="&#x42e;" horiz-adv-x="2030" 
d="M188 0v1411v0h96h97v0v-605v0h240v0q19 275 165 440q168 193 463 193q297 0 465 -193t168 -532q0 -347 -168 -544.5t-465 -197.5q-295 0 -464 198q-151 179 -167 476v0h-237v0v-646v0h-96h-97v0zM1249 1279q-209 0 -324 -148.5t-115 -418.5q0 -277 115 -428.5t324 -151.5
q210 0 325 151.5t115 428.5q0 270 -115 418.5t-325 148.5v0z" />
    <glyph glyph-name="afii10049" unicode="&#x42f;" 
d="M1115 0v1411v0h-96v0h-443q-207 0 -324.5 -96.5t-117.5 -265.5q0 -173 126 -271q49 -37 110 -61v0q-68 -12 -107 -44q-65 -54 -99 -217q-29 -139 -51 -231l-15 -63q-15 -64 -28 -100.5t-30 -60.5h102h103q16 41 36.5 122t55.5 238l16 75q22 108 81.5 152t183.5 44h304v0
v-632v0h96h97v0zM922 792v0h-315q-134 0 -207 57t-73 161q0 127 77.5 184t250.5 57h267v0v-459z" />
    <glyph glyph-name="afii10065" unicode="&#x430;" horiz-adv-x="1095" 
d="M475 -28q-169 0 -264.5 81.5t-95.5 225.5q0 156 131 244.5t361 88.5h164v0v83q0 94 -54 137t-174 43q-82 0 -132 -39.5t-56 -109.5v0h-190v0q11 148 106 216.5t287 68.5q177 0 285.5 -87t108.5 -229v-342q0 -140 7 -234t20 -119v0v0h-172v0q-11 13 -17 66q-5 35 -7 84v0
q-18 -32 -41 -61q-97 -117 -267 -117zM771 404v74v0h-166q-154 0 -230.5 -50t-76.5 -150q0 -81 54 -125.5t153 -44.5q133 0 199 75t67 221v0z" />
    <glyph glyph-name="afii10066" unicode="&#x431;" horiz-adv-x="1133" 
d="M561 -28q-214 0 -335 160.5t-121 443.5q1 380 100 543t340 182q127 10 189 44t62 94h149q-10 -125 -109.5 -193t-300.5 -87q-158 -15 -222 -146q-19 -37 -31 -87v0q109 85 279 85q214 0 335 -136.5t121 -377.5q0 -246 -121 -386q-121 -139 -335 -139zM561 875
q-125 0 -194 -99t-69 -280q0 -185 69 -286.5t194 -101.5t194 101.5t69 286.5q0 181 -69 280t-194 99z" />
    <glyph glyph-name="afii10067" unicode="&#x432;" horiz-adv-x="1020" 
d="M140 0v983v0h90v0h268q204 0 307 -61t103 -182q0 -123 -103 -185q-33 -20 -78 -34v0q69 -18 114 -47q108 -69 108 -205q0 -134 -100 -201.5t-298 -67.5h-321v0h-90v0zM321 847v-266v0h177q110 0 163.5 32t53.5 97q0 69 -53.5 103t-163.5 34h-177v0zM321 441v-305v0h217
q115 0 166.5 36.5t51.5 117.5q0 73 -61.5 112t-178.5 39h-195v0z" />
    <glyph glyph-name="afii10068" unicode="&#x433;" horiz-adv-x="855" 
d="M326 0v0h-90h-91v0v983v0h672v-67v-68v0h-491v0v-848z" />
    <glyph glyph-name="afii10069" unicode="&#x434;" horiz-adv-x="1061" 
d="M259 983v0h661v0v-848h76v-358h-181v223h-587v-223h-181v358h97h1q28 74 53 187q61 285 61 661zM739 848v0h-302v0q-8 -290 -59 -526q-23 -110 -53 -187v0h414v0v713z" />
    <glyph glyph-name="afii10070" unicode="&#x435;" horiz-adv-x="1095" 
d="M565 -28q-217 0 -340 134t-123 370q0 250 123.5 392.5t339.5 142.5q209 0 319 -123.5t110 -359.5l-2 -66v0h-701v0q7 -168 64 -255q65 -99 205 -99q99 0 162.5 55t75.5 152v0h187v0q-21 -167 -128.5 -255t-291.5 -88zM808 597v0q-9 135 -56 198q-59 80 -202 80
q-124 0 -193 -93q-52 -70 -64 -185v0h515z" />
    <glyph glyph-name="afii10072" unicode="&#x436;" horiz-adv-x="1435" 
d="M801 442v-442h-90h-91v0v442v0h-58q-102 0 -162 -41t-89 -129l-36 -110l-55 -161h-98h-99q15 21 30.5 57t37.5 104l53 164q37 113 144 166q36 18 82 29v0l-32 12q-94 40 -111 128l-18 96q-8 41 -28.5 61t-55.5 20h-29v145h58q89 0 143.5 -56.5t76.5 -169.5l7 -39
q14 -70 64 -102.5t146 -32.5h29v0v400v0h90h91v0v-400v0h28q96 0 146 32.5t64 102.5l7 39q22 113 77 169.5t144 56.5h58v-145h-29q-35 0 -56 -20t-29 -61l-18 -96q-17 -88 -111 -129l-32 -12v0q46 -11 82 -29q107 -52 144 -165l53 -164q22 -68 37.5 -104t30.5 -57h-98h-99
l-55 161l-36 110q-29 88 -89 129t-162 41h-57v0z" />
    <glyph glyph-name="afii10073" unicode="&#x437;" horiz-adv-x="868" 
d="M428 -28q-165 0 -269.5 79.5t-108.5 208.5v0h193v0q9 -71 61 -111.5t134 -40.5q93 0 144 44.5t51 125.5q0 79 -51 122.5t-144 43.5h-123v134h134q88 0 136 39t48 111q0 70 -48 108.5t-136 38.5q-82 0 -132.5 -42t-50.5 -110v0h-193v0q0 132 99 210t267 78
q172 0 269.5 -71.5t97.5 -196.5q0 -128 -98 -201q-26 -19 -57 -33v0q31 -16 55 -34q100 -76 100 -210q0 -137 -100.5 -215t-277.5 -78v0z" />
    <glyph glyph-name="afii10074" unicode="&#x438;" horiz-adv-x="1133" 
d="M348 0h-102h-102v983v0h90h91v0v-737v0v0l463 737h102h102v-983v0h-90h-91v0v737v0v0z" />
    <glyph glyph-name="glyph384" horiz-adv-x="0" 
d="M0 -6q-145 0 -226 76.5t-85 217.5h136q7 -92 48 -132.5t127 -40.5q83 0 129 45.5t46 127.5h136q0 -144 -79.5 -219t-231.5 -75z" />
    <glyph glyph-name="afii10075" unicode="&#x439;" horiz-adv-x="1133" 
d="M348 0h-102h-102v983v0h90h91v0v-737v0v0l463 737h102h102v-983v0h-90h-91v0v737v0v0zM568 1097q-145 0 -226 76.5t-85 217.5h136q7 -92 48 -132.5t127 -40.5q83 0 129 45.5t46 127.5h136q0 -144 -79.5 -219t-231.5 -75z" />
    <glyph glyph-name="afii10076" unicode="&#x43a;" horiz-adv-x="1020" 
d="M150 0v983v0h90h91v0v-400v0h31q108 0 164 32.5t71 102.5l8 39q24 113 80 169.5t145 56.5h62v-145h-31q-37 0 -59.5 -20t-31.5 -61l-20 -96q-18 -88 -119 -129l-35 -12v0q49 -11 86 -29q114 -52 155 -165l59 -164q25 -69 41.5 -105t31.5 -56h-98h-99l-61 161l-40 110
q-32 88 -98.5 129t-179.5 41h-62v0v-442v0h-90h-91v0z" />
    <glyph glyph-name="afii10077" unicode="&#x43b;" horiz-adv-x="1133" 
d="M809 848v0h-418v0v-477q0 -208 -62 -293.5t-212 -85.5h-77v163h37q78 0 105.5 44.5t27.5 171.5v0v612v0h780v0v-983h-90h-91v0v848z" />
    <glyph glyph-name="afii10078" unicode="&#x43c;" horiz-adv-x="1511" 
d="M317 0v0h-90h-91v0v983v0h147h147v0l331 -829v0v0l319 829v0h147h147v0v-983v0h-90h-91v0v847v0l-337 -847h-97h-97l-345 850v0v-850z" />
    <glyph glyph-name="afii10079" unicode="&#x43d;" horiz-adv-x="1133" 
d="M144 0v983v0h90h91v0v-403v0h486v0v403v0h90h91v0v-983v0h-90h-91v0v441v0h-486v0v-441v0h-90h-91v0z" />
    <glyph glyph-name="afii10080" unicode="&#x43e;" horiz-adv-x="1171" 
d="M580 -28q-222 0 -348.5 139.5t-126.5 385.5q0 241 126.5 377.5t348.5 136.5q223 0 349 -136.5t126 -377.5q0 -246 -126 -385.5t-349 -139.5v0zM580 108q134 0 208 101.5t74 286.5q0 181 -74 280t-208 99t-208 -99t-74 -280q0 -185 74 -286.5t208 -101.5v0z" />
    <glyph glyph-name="afii10081" unicode="&#x43f;" horiz-adv-x="1133" 
d="M325 0h-90h-91v0v983v0h848v0v-983v0h-90h-91v0v848v0h-486v0v-848v0z" />
    <glyph glyph-name="afii10082" unicode="&#x440;" horiz-adv-x="1171" 
d="M150 983v0h90h91v0v-128v0l14 18q110 138 303 138q194 0 303.5 -136.5t109.5 -377.5q0 -246 -111.5 -385.5t-309.5 -139.5q-195 0 -307 139l-2 2v-480v0h-90h-91v0v1350zM603 106q131 0 203 102t72 288q0 182 -71.5 281.5t-202.5 99.5q-130 0 -201.5 -100.5t-71.5 -284.5
v0v0v0q0 -197 66.5 -291.5t205.5 -94.5z" />
    <glyph glyph-name="afii10083" unicode="&#x441;" horiz-adv-x="1095" 
d="M988 334v0q-14 -180 -116 -271t-290 -91q-241 0 -357.5 129t-117.5 396q0 241 126.5 377.5t348.5 136.5q181 0 286.5 -91t110.5 -252v0h-185v0q-3 97 -64.5 152t-166.5 55q-136 0 -199.5 -91.5t-63.5 -287.5q0 -204 62 -296t201 -92q117 0 175.5 54.5t67.5 171.5v0h182z
" />
    <glyph glyph-name="afii10084" unicode="&#x442;" horiz-adv-x="944" 
d="M380 0v848v0h-332v0v67v68v0h844v0v-67v-68v0h-331v0v-848v0h-90h-91v0z" />
    <glyph glyph-name="afii10085" unicode="&#x443;" horiz-adv-x="1133" 
d="M513 -363v0h-91h-91v0l150 359v0l-415 987v0h97h98v0l317 -779v0v0l299 779v0h96h96v0z" />
    <glyph glyph-name="afii10086" unicode="&#x444;" horiz-adv-x="1700" 
d="M754 1411v0h90h91v0v-545v0l5 7q100 138 277 138q172 0 269.5 -136.5t97.5 -377.5q0 -246 -99.5 -385.5t-275.5 -139.5q-171 0 -274 129v0v-468v0h-90h-91v0v469v0q-102 -131 -275 -130q-175 0 -274.5 139.5t-99.5 385.5q0 241 97.5 377.5t268.5 136.5q176 0 277 -138
l6 -8v0v546zM1401 496v0q0 182 -59.5 281.5t-168.5 99.5q-113 0 -175.5 -100.5t-62.5 -284.5v0v0q0 -184 62 -285t175 -101q109 0 169 102t60 288v0zM288 496v0q0 -186 59.5 -288t167.5 -102q114 0 176.5 101t62.5 285v0v0q0 184 -62.5 284.5t-176.5 100.5
q-108 0 -167.5 -99.5t-59.5 -281.5v0z" />
    <glyph glyph-name="afii10087" unicode="&#x445;" horiz-adv-x="1133" 
d="M67 0l396 503v0l-369 480v0h119h119v0l255 -363v0v0l259 363v0h104h104v0l-369 -471v0l385 -512v0h-114h-115v0l-282 398v0v0l-280 -398v0h-106h-106v0z" />
    <glyph glyph-name="afii10088" unicode="&#x446;" horiz-adv-x="1133" 
d="M144 0v0v983v0h90h91v0v-848v0h486v0v848v0h90h91v0v-848h76v-358h-181v223h-743z" />
    <glyph glyph-name="afii10089" unicode="&#x447;" horiz-adv-x="1020" 
d="M480 495q78 0 145.5 25t90.5 62v0v400v0h90h91v0v-983v0h-90h-91v0v433v0v0l-48 -19q-128 -49 -237 -49q-184 0 -271 98t-87 307v213v0h90h91v0v-216q0 -142 53.5 -206.5t172.5 -64.5z" />
    <glyph glyph-name="afii10090" unicode="&#x448;" horiz-adv-x="1662" 
d="M144 0v0v983v0h90h91v0v-848v0h417v0v848v0h90h91v0v-848v0h417v0v848v0h90h91v0v-983v0h-1377z" />
    <glyph glyph-name="afii10091" unicode="&#x449;" horiz-adv-x="1662" 
d="M144 0v0v983v0h90h91v0v-848v0h417v0v848v0h90h91v0v-848v0h417v0v848v0h90h91v0v-848h76v-358h-181v223h-1272z" />
    <glyph glyph-name="afii10092" unicode="&#x44a;" horiz-adv-x="1231" 
d="M46 983h496v0v-351v0l152 -3q247 0 361.5 -75t114.5 -236q0 -174 -104.5 -246t-358.5 -72h-256v0h-90v0v848v0h-315v0v67v68v0zM542 493v-357v0h165q142 0 206 42.5t64 137.5q0 93 -67 135t-216 42h-152v0z" />
    <glyph glyph-name="glyph403" horiz-adv-x="0" 
d="M-404 0v983v0h90h91v0v-351v0l152 -3q247 0 361.5 -75t114.5 -236q0 -174 -104.5 -246t-358.5 -72h-256v0h-90v0zM-223 493v-357v0h165q142 0 206 42.5t64 137.5q0 93 -67 135t-216 42h-152v0z" />
    <glyph glyph-name="glyph404" horiz-adv-x="0" 
d="M-90 0v983v0h90h91v0v-983v0h-90h-91v0z" />
    <glyph glyph-name="afii10093" unicode="&#x44b;" horiz-adv-x="1432" 
d="M151 0v983v0h90h91v0v-351v0l152 -3q247 0 361.5 -75t114.5 -236q0 -174 -104.5 -246t-358.5 -72h-256v0h-90v0zM332 493v-357v0h165q142 0 206 42.5t64 137.5q0 93 -67 135t-216 42h-152v0zM1104 0v983v0h90h91v0v-983v0h-90h-91v0z" />
    <glyph glyph-name="afii10094" unicode="&#x44c;" horiz-adv-x="1020" 
d="M151 0v983v0h90h91v0v-351v0l152 -3q247 0 361.5 -75t114.5 -236q0 -174 -104.5 -246t-358.5 -72h-256v0h-90v0zM332 493v-357v0h165q142 0 206 42.5t64 137.5q0 93 -67 135t-216 42h-152v0z" />
    <glyph glyph-name="afii10095" unicode="&#x44d;" horiz-adv-x="1095" 
d="M107 334h186v0q0 -105 57.5 -165t159.5 -60q133 0 206 103q58 81 70 211v0h-338v135h341v0q-11 138 -72 218q-74 97 -207 97q-105 0 -165 -54.5t-60 -150.5v0h-178v0q0 161 108 252t298 91q236 0 355.5 -131.5t119.5 -392.5q0 -257 -119.5 -386t-355.5 -129
q-206 0 -306 89t-100 273v0z" />
    <glyph glyph-name="afii10096" unicode="&#x44e;" horiz-adv-x="1613" 
d="M145 0v983v0h90h91v0v-405v0h225v0q18 185 123 297q126 136 348 136q223 0 349 -136.5t126 -377.5q0 -246 -126 -385.5t-349 -139.5q-222 0 -349 140q-112 125 -125 331v0h-222v0v-443v0h-90h-91v0zM1022 875q-134 0 -208 -99t-74 -280q0 -185 74 -286.5t208 -101.5
t208 101.5t74 286.5q0 181 -74 280t-208 99v0z" />
    <glyph glyph-name="afii10097" unicode="&#x44f;" horiz-adv-x="1020" 
d="M907 0v983v0h-90v0h-345q-174 0 -273 -67.5t-99 -186.5q0 -122 106 -191q34 -22 76 -37v0q-50 -10 -78 -30q-52 -37 -79 -150q-22 -92 -40 -157q-20 -70 -34.5 -106.5t-28.5 -56.5h98h99q13 35 23.5 71t23.5 89l35 146q15 67 56.5 94t127.5 27h241v0v-428v0h90h91v0z
M726 564v0h-229q-97 0 -150.5 35t-53.5 99q0 78 56.5 113.5t182.5 35.5h194v0v-283z" />
    <glyph glyph-name="afii10071" unicode="&#x451;" horiz-adv-x="1095" 
d="M565 -28q-217 0 -340 134t-123 370q0 250 123.5 392.5t339.5 142.5q209 0 319 -123.5t110 -359.5l-2 -66v0h-701v0q7 -168 64 -255q65 -99 205 -99q99 0 162.5 55t75.5 152v0h187v0q-21 -167 -128.5 -255t-291.5 -88zM808 597v0q-9 135 -56 198q-59 80 -202 80
q-124 0 -193 -93q-52 -70 -64 -185v0h515zM290 1375h192v-208h-192v208zM651 1375h192v-208h-192v208z" />
    <glyph glyph-name="afii10099" unicode="&#x452;" horiz-adv-x="1171" 
d="M148 0v1411v0h84h84v0v-564v0v0q14 21 31 39q112 125 302 125q194 0 285 -103t91 -322v-666q0 -168 -54 -236.5t-185 -68.5q-64 0 -113 5v129h10q104 0 132.5 30.5t28.5 140.5v663q0 151 -57 219t-182 68q-145 0 -210.5 -74.5t-65.5 -239.5v0v-556v0h-90h-91v0zM13 1148
v135h702v-135h-702z" />
    <glyph glyph-name="afii10100" unicode="&#x453;" horiz-adv-x="855" 
d="M326 0v0h-90h-91v0v983v0h672v-67v-68v0h-491v0v-848zM355 1103l190 300h245l-263 -300h-172z" />
    <glyph glyph-name="afii10101" unicode="&#x454;" horiz-adv-x="1095" 
d="M988 334v0q0 -169 -108 -265.5t-298 -96.5q-236 0 -355.5 129t-119.5 386q0 261 119.5 392.5t355.5 131.5q190 0 298 -91t108 -252v0h-198v0q0 96 -54.5 150.5t-150.5 54.5q-133 0 -207 -97q-61 -80 -72 -218v0h341v-135h-338v0q12 -130 70 -211q73 -103 206 -103
q102 0 159.5 60t57.5 165v0h186z" />
    <glyph glyph-name="afii10102" unicode="&#x455;" horiz-adv-x="1020" 
d="M712 718v0q0 73 -52.5 115t-145.5 42q-96 0 -149 -35t-53 -98q0 -46 29 -76q28 -30 88 -46l200 -54q153 -42 220 -107q66 -64 66 -170q0 -148 -108.5 -232.5t-299.5 -84.5q-200 0 -304.5 82.5t-104.5 240.5v0h187v0q0 -88 59 -137.5t163 -49.5q109 0 169 43t60 122
q0 46 -37 78t-114 53l-200 54q-136 37 -196 99q-59 62 -59 168q0 134 102 210t282 76t282.5 -78t102.5 -215v0h-187z" />
    <glyph glyph-name="afii10103" unicode="&#x456;" horiz-adv-x="491" 
d="M154 0v983v0h90h91v0v-983v0h-90h-91v0zM145 1411h198v-185h-198v185z" />
    <glyph glyph-name="afii10104" unicode="&#x457;" horiz-adv-x="491" 
d="M151 0v983v0h90h91v0v-983v0h-90h-91v0zM-35 1375h192v-208h-192v208zM326 1375h192v-208h-192v208z" />
    <glyph glyph-name="afii10105" unicode="&#x458;" horiz-adv-x="491" 
d="M155 983v0h90h91v0v-1072q0 -166 -57.5 -233.5t-198.5 -67.5q-59 -1 -101 7v129h54q70 0 96 35t26 130v0v1072zM147 1411h198v-185h-198v185z" />
    <glyph glyph-name="afii10106" unicode="&#x459;" horiz-adv-x="1699" 
d="M829 848v0h-438v0v-477q0 -208 -62 -293.5t-212 -85.5h-77v163h37q78 0 105.5 44.5t27.5 171.5v0v612v0h800v0v-351v0l152 -3q247 0 361.5 -75t114.5 -236q0 -174 -104.5 -246t-358.5 -72h-256h-90v0v848zM1010 493v-357v0h165q142 0 206 42.5t64 137.5q0 93 -67 135
t-216 42h-152v0z" />
    <glyph glyph-name="afii10107" unicode="&#x45a;" horiz-adv-x="1737" 
d="M144 0v983v0h90h91v0v-356v0h542v0v356v0h90h91v0v-351v0l152 -3q247 0 361.5 -75t114.5 -236q0 -174 -104.5 -246t-358.5 -72h-256h-90v0v492v0h-542v0v-492v0h-90h-91v0zM1048 493v-357v0h165q142 0 206 42.5t64 137.5q0 93 -67 135t-216 42h-152v0z" />
    <glyph glyph-name="afii10108" unicode="&#x45b;" horiz-adv-x="1171" 
d="M148 0v1411v0h84h84v0v-564v0v0q14 21 31 39q112 125 302 125q194 0 285 -103t91 -322v-586v0h-90h-91v0v583q0 151 -57 219t-182 68q-145 0 -210.5 -74.5t-65.5 -239.5v0v-556v0h-90h-91v0zM13 1148v135h702v-135h-702z" />
    <glyph glyph-name="afii10109" unicode="&#x45c;" horiz-adv-x="1020" 
d="M150 0v983v0h90h91v0v-400v0h31q108 0 164 32.5t71 102.5l8 39q24 113 80 169.5t145 56.5h62v-145h-31q-37 0 -59.5 -20t-31.5 -61l-20 -96q-18 -88 -119 -129l-35 -12v0q49 -11 86 -29q114 -52 155 -165l59 -164q25 -69 41.5 -105t31.5 -56h-98h-99l-61 161l-40 110
q-32 88 -98.5 129t-179.5 41h-62v0v-442v0h-90h-91v0zM424 1103l190 300h245l-263 -300h-172z" />
    <glyph glyph-name="afii10110" unicode="&#x45e;" horiz-adv-x="1133" 
d="M513 -363v0h-91h-91v0l150 359v0l-415 987v0h97h98v0l317 -779v0v0l299 779v0h96h96v0zM567 1097q-145 0 -226 76.5t-85 217.5h136q7 -92 48 -132.5t127 -40.5q83 0 129 45.5t46 127.5h136q0 -144 -79.5 -219t-231.5 -75z" />
    <glyph glyph-name="afii10193" unicode="&#x45f;" horiz-adv-x="1133" 
d="M144 0v0v983v0h90h91v0v-848v0h486v0v848v0h90h91v0v-983v0h-334v-223h-181v223h-333z" />
    <glyph glyph-name="afii10050" unicode="&#x490;" horiz-adv-x="1080" 
d="M384 0v0h-96h-97v0v1411v0h694v0v282h160v-442h-661v0v-1251z" />
    <glyph glyph-name="afii10098" unicode="&#x491;" horiz-adv-x="812" 
d="M326 0v0h-90h-91v0v983v0h497v0v196h135v-331h-451v0v-848z" />
    <glyph glyph-name="endash" unicode="&#x2013;" 
d="M154 575h974v-109h-974v109z" />
    <glyph glyph-name="emdash" unicode="&#x2014;" horiz-adv-x="2039" 
d="M287 585h1464v-109h-1464v109z" />
    <glyph glyph-name="quoteleft" unicode="&#x2018;" horiz-adv-x="680" 
d="M502 1411l-135 -476h-220l223 476h132z" />
    <glyph glyph-name="quoteright" unicode="&#x2019;" horiz-adv-x="680" 
d="M161 935l135 476h220l-223 -476h-132z" />
    <glyph glyph-name="quotesinglbase" unicode="&#x201a;" horiz-adv-x="680" 
d="M161 -238l135 476h220l-223 -476h-132z" />
    <glyph glyph-name="quotedblleft" unicode="&#x201c;" horiz-adv-x="1020" 
d="M558 1411l-135 -476h-220l223 476h132zM908 1411l-135 -476h-220l223 476h132z" />
    <glyph glyph-name="quotedblright" unicode="&#x201d;" horiz-adv-x="1020" 
d="M209 935l135 476h220l-223 -476h-132zM559 935l135 476h220l-223 -476h-132z" />
    <glyph glyph-name="quotedblbase" unicode="&#x201e;" horiz-adv-x="1020" 
d="M209 -238l135 476h220l-223 -476h-132zM559 -238l135 476h220l-223 -476h-132z" />
    <glyph glyph-name="dagger" unicode="&#x2020;" 
d="M304 1108h291v0v303h154v-303v0h292v-129h-292v0v-979h-154v979v0h-291v129z" />
    <glyph glyph-name="daggerdbl" unicode="&#x2021;" 
d="M304 1110h291v0v301h154v-301v0h292v-132h-292v0v-547v0h292v-131h-292v0v-300h-154v300v0h-291v131h291v0v547v0h-291v132z" />
    <glyph glyph-name="bullet" unicode="&#x2022;" horiz-adv-x="1020" 
d="M510 1103q155 0 262.5 -107.5t107.5 -262.5t-107.5 -262.5t-262.5 -107.5t-262.5 107.5t-107.5 262.5t107.5 262.5t262.5 107.5z" />
    <glyph glyph-name="ellipsis" unicode="&#x2026;" horiz-adv-x="2039" 
d="M233 214h218v-214h-218v214zM904 214h218v-214h-218v214zM1576 214h218v-214h-218v214z" />
    <glyph glyph-name="perthousand" unicode="&#x2030;" horiz-adv-x="2039" 
d="M372 650q-129 0 -209 109.5t-80 286.5q0 174 80 281t209 107v0q129 0 209 -107t80 -281q0 -177 -80 -286.5t-209 -109.5v0zM372 1317q-66 0 -105.5 -74t-39.5 -198q0 -127 39.5 -202.5t105.5 -75.5v0q69 0 107 72.5t38 205.5q0 130 -38 201t-107 71v0zM206 -69l843 1518
h130l-843 -1518h-130zM1035 -26q-129 0 -209 109.5t-80 286.5q0 174 80 281t209 107v0q129 0 209 -107t80 -281q0 -177 -80 -286.5t-209 -109.5v0zM1035 641q-66 0 -105.5 -74t-39.5 -198q0 -127 39.5 -202.5t105.5 -75.5v0q69 0 107 72.5t38 205.5q0 130 -38 201t-107 71v0
zM1677 -26q-129 0 -209 109.5t-80 286.5q0 174 80 281t209 107v0q129 0 209 -107t80 -281q0 -177 -80 -286.5t-209 -109.5v0zM1677 641q-66 0 -105.5 -74t-39.5 -198q0 -127 39.5 -202.5t105.5 -75.5v0q69 0 107 72.5t38 205.5q0 130 -38 201t-107 71v0z" />
    <glyph glyph-name="guilsinglleft" unicode="&#x2039;" horiz-adv-x="755" 
d="M582 862l-224 -373v0l224 -373h-155l-262 373v0l262 373h155z" />
    <glyph glyph-name="guilsinglright" unicode="&#x203a;" horiz-adv-x="755" 
d="M167 116l224 373v0l-224 373h155l262 -373v0l-262 -373h-155z" />
    <glyph glyph-name="glyph441" horiz-adv-x="0" 
d="M192 0v0h-96h-96v0v1411v0h125h126v0l705 -1186v0v0v1186v0h96h96v0v-1411h-129h-130l-697 1172v0v0v-1172z" />
    <glyph glyph-name="glyph442" horiz-adv-x="0" 
d="M318 374q-149 0 -233.5 93t-84.5 256q0 160 84.5 251t233.5 91t234 -91t85 -251q0 -163 -85 -256t-234 -93v0zM322 478q68 0 105.5 64t37.5 180q0 114 -37.5 176.5t-105.5 62.5t-105 -62.5t-37 -176.5q0 -116 37 -180t105 -64v0z" />
    <glyph glyph-name="glyph443" horiz-adv-x="0" 
d="M0 211h541v-112h-541v112z" />
    <glyph glyph-name="afii61352" unicode="&#x2116;" horiz-adv-x="2199" 
d="M370 0v0h-96h-96v0v1411v0h125h126v0l705 -1186v0v0v1186v0h96h96v0v-1411h-129h-130l-697 1172v0v0v-1172zM1772 361q-149 0 -233.5 93t-84.5 256q0 160 84.5 251t233.5 91t234 -91t85 -251q0 -163 -85 -256t-234 -93v0zM1776 465q68 0 105.5 64t37.5 180
q0 114 -37.5 176.5t-105.5 62.5t-105 -62.5t-37 -176.5q0 -116 37 -180t105 -64v0zM1502 220h541v-112h-541v112z" />
    <glyph glyph-name="glyph445" horiz-adv-x="0" 
d="M0 1388h393v-89h-152v-518h-89v518h-152v89z" />
    <glyph glyph-name="glyph446" horiz-adv-x="0" 
d="M0 781v607h160l112 -486l112 486h160v-607h-89v559l-129 -559h-108l-129 559v-559h-89z" />
    <glyph glyph-name="trademark" unicode="&#x2122;" horiz-adv-x="1248" 
d="M51 1388h393v-89h-152v-518h-89v518h-152v89zM507 781v607h160l112 -486l112 486h160v-607h-89v559l-129 -559h-108l-129 559v-559h-89z" />
    <glyph glyph-name="uni2219" unicode="&#x2219;" horiz-adv-x="680" 
d="M237 824h218v-238h-218v238z" />
    <glyph glyph-name="uniEFED" unicode="&#xefed;" 
d="M550 1760h192v-210h-192v210z" />
    <glyph glyph-name="uniEFEE" unicode="&#xefee;" 
d="M632 1522q-143 0 -224 70t-87 200h136q7 -79 48.5 -114t126.5 -35q74 0 120 39t55 110h136q-10 -132 -89.5 -201t-221.5 -69z" />
    <glyph glyph-name="uniEFEF" unicode="&#xefef;" 
d="M314 1675h662v-126h-662v126z" />
    <glyph glyph-name="uniEFF0" unicode="&#xeff0;" 
d="M361 1520l163 264h253l-227 -264h-189zM711 1520l163 264h253l-227 -264h-189z" />
    <glyph glyph-name="uniEFF1" unicode="&#xeff1;" 
d="M999 -143q0 53 24 98.5t72 84.5h122q-36 -21 -60.5 -63t-24.5 -81q0 -54 37.5 -84.5t104.5 -30.5q4 0 36 1v-132h-37q-115 0 -195 60q-79 60 -79 147z" />
    <glyph glyph-name="uniEFF2" unicode="&#xeff2;" 
d="M457 -391l171 263h161l-116 -263h-216z" />
    <glyph glyph-name="uniEFF3" unicode="&#xeff3;" 
d="M649 1489q-108 0 -182.5 76t-74.5 186t74.5 186.5t182.5 76.5t183 -76.5t75 -186.5t-75 -186t-183 -76v0zM649 1621q53 0 89 37.5t36 92.5t-36 93t-89 38q-52 0 -88 -38t-36 -93t36 -92.5t88 -37.5v0z" />
    <glyph glyph-name="uniEFF4" unicode="&#xeff4;" 
d="M532 1531l-194 264h187l125 -156v0l125 156h181l-194 -264h-115h-115z" />
    <glyph glyph-name="uniEFF5" unicode="&#xeff5;" 
d="M287 1528q4 128 50.5 191.5t136.5 63.5q54 0 93 -12.5t122 -56.5q52 -27 80 -38t47 -11q47 0 65.5 26t20.5 94h125q-2 -128 -51 -191.5t-145 -63.5q-57 0 -94.5 11.5t-111.5 52.5q-53 29 -81 40.5t-45 11.5q-42 0 -61 -25.5t-26 -92.5h-125z" />
    <glyph glyph-name="uniEFF6" unicode="&#xeff6;" 
d="M363 1767h192v-209h-192v209zM730 1767h192v-209h-192v209z" />
    <glyph glyph-name="uniEFF7" unicode="&#xeff7;" 
d="M769 1792l193 -264h-187l-124 156v0l-124 -156h-181l193 264h115h115z" />
    <glyph glyph-name="uniEFF8" unicode="&#xeff8;" 
d="M629 1531l-232 264h253l163 -264h-184z" />
    <glyph glyph-name="uniEFF9" unicode="&#xeff9;" 
d="M536 1531l163 264h253l-238 -264h-178z" />
  </font>
</defs>
</svg>
